(Classical) [EP] [24/96] Оркестр Большого Театра СССР, дир. Б. Хайкин - Л. Боккерини (L. Boccherini), М. Огинский (M. Oginski), А. Рубинштейн - Менуэт (Minuetto), Полонез (Polonez), Лезгинка из оперы "Демон" - 1961, FLAC (tracks)


Статистика раздачи [Обновить пиров]
Размер:  119 MB   |    Зарегистрирован:  8 месяцев 13 дней   |    Скачан:  0 раз

Полного источника не было: Никогда

 
   
 
 
 

[Цитировать]

Оркестр Большого Театра СССР
Л. Боккерини, М. Огинский, А. Рубинштейн
Менуэт, Полонез, Лезгинка из оперы "Демон" (1961)

Жанр: Classical
Носитель: EP
Год выпуска: 1961
Лейбл: Мелодия(33 Д0009013-14)
Страна-производитель: СССР
Аудио кодек: FLAC
Тип рипа: tracks
Формат записи: 24/192
Формат раздачи: 24/96
Продолжительность: 00:13:10
Источник оцифровки: автором раздачи
Код класса состояния винила: VG (-)
Устройство воспроизведения: Электроника ЭП 017С
Головка звукоснимателя: ГЗМ – 028 (Корвет)
Предварительный усилитель: AMX - 100 (LTO®)
АЦП: Juli@
Программа-оцифровщик: Adobe Audition CS6 5.0.2.
Реальные значения DRM: DR14
Обработка: удаление артефактов, частичная реставрация

Трэклист:


01. Л. Боккерини - Менуэт
02. М. Огинский - Полонез
03. А. Рубинштейн - Лезгинка из оперы ''Демон''
Оркестр Большого Театра СССР, дирижёр Б. Хайкин

Реальные значения DRM:

foobar2000 1.1.3 / Dynamic Range Meter 1.1.1
log date: 2016-02-22 20:21:45
--------------------------------------------------------------------------------
Analyzed: Оркестр Большого Театра СССР, дирижёрБ. Хайкин / Менуэт, Полонез и Лезгинка
--------------------------------------------------------------------------------
DR Peak RMS Duration Track
--------------------------------------------------------------------------------
DR15 -1.10 dB -20.43 dB 3:15 ?-Менуэт
DR13 -1.10 dB -16.05 dB 3:22 ?-Полонез
DR14 -1.10 dB -20.82 dB 6:32 ?-Лезгинка из оперы ''Демон'
--------------------------------------------------------------------------------
Number of tracks: 3
Official DR value: DR14
Samplerate: 96000 Hz
Channels: 1
Bits per sample: 24
Bitrate: 1237 kbps
Codec: FLAC
================================================================================

Конверт, наклейки:


Уровень записи, спектр, АЧХ:

[teatrix.ru].t23070.torrent 
Торрент: Зарегистрирован [ 2016-03-21 00:33 ] · 7C50B49708AF65BB29A74872B861DE07B5C2B12A

Скачать .torrent

Скачать

20 KB

Статус: проверено
Скачан: 0 раз
Размер: 119 MB
terms.php



Быстрый ответ

Имя:

      
Для отправки сообщений необходимо включить JavaScript
Показать сообщения:    

Текущее время: 03-Дек 18:41

Часовой пояс: UTC + 3


Вы можете начинать темы
Вы можете отвечать на сообщения
Вы не можете редактировать свои сообщения
Вы не можете удалять свои сообщения
Вы не можете голосовать в опросах
Вы не можете прикреплять файлы к сообщениям
Вы можете скачивать файлы