Сочувствие господину Месть / Boksuneun naui geot / Sympathy for Mr. Vengeance (Пак Чхан Ук / Park Chan Wook) [2002, Южная Корея, доама, криминал, HDRip] MVO (Cinema Prestige) + DVO (Tycoon) + Original Kor


 

[Цитировать]

Сочувствие господину Месть / Boksuneun naui geot / Sympathy for Mr. Vengeance
«Поэма о мести»
Страна: Южная Корея
Жанр: доама, криминал
Год выпуска: 2002
Продолжительность: 02:01:02
Перевод 1: Профессиональный (многоголосый закадровый) - Cinema Prestige
Перевод 2: Профессиональный (двухголосый закадровый) - Tycoon
Cубтитры: нет
Оригинальная аудиодорожка: корейская
Режиссер: Пак Чхан Ук / Park Chan Wook
В ролях: Сон Кан Хо, Син Ха Гюн, Пэ Дуна, Чжи-ын Лим, Хан Бо Бэ, Ким Се Дон, Ли Дэ Ён, Масаси Фудзимото, Ки Джу Бон, Чжон Гю Сю.
Описание: История глухонемого Рю и его сестры, которой нужно пересадить почку. Начальник Рю, Пак, только что уволил его, и Рю со своей подружкой решают похитить дочь Пака, чтобы на полученный выкуп сделать трансплантацию. Но все идет катастрофически не так, и ситуация очень скоро перерастает в лавину насилия и мести…

Доп. информация:
Исходник - BDRip 720p из раздачи msltel (Kinozal)

Качество видео: HDRip
Формат видео: AVI
Видео: 720x304 (2.37:1), 23.976 fps, XviD build 50 ~1324 kbps avg, 0.25 bit/pixel
Аудио 1: 48 kHz, MPEG Layer 3, 2 ch, ~128.00 kbps avg - MVO [Cinema Prestige]
Аудио 2: 48 kHz, MPEG Layer 3, 2 ch, ~128.00 kbps avg - DVO [Tycoon]
Аудио 3: 48 kHz, MPEG Layer 3, 2 ch, ~128.00 kbps avg - Original

MediaInfo

General
Complete name : D:\Public\SGM\Sochuvstvie.gospodinu.Mest.(2002).HDRip.(mvo, dvo, kor).avi
Format : AVI
Format/Info : Audio Video Interleave
File size : 1.46 GiB
Duration : 2h 1mn
Overall bit rate : 1 728 Kbps
Writing application : VirtualDubMod 1.5.10.2 (build 2542/release)
Writing library : VirtualDubMod build 2542/release
Video
ID : 0
Format : MPEG-4 Visual
Format profile : Advanced Simple@L5
Format settings, BVOP : 1
Format settings, QPel : No
Format settings, GMC : No warppoints
Format settings, Matrix : Custom
Codec ID : XVID
Codec ID/Hint : XviD
Duration : 2h 1mn
Bit rate : 1 326 Kbps
Width : 720 pixels
Height : 304 pixels
Display aspect ratio : 2.35:1
Frame rate : 23.976 fps
Color space : YUV
Chroma subsampling : 4:2:0
Bit depth : 8 bits
Scan type : Progressive
Compression mode : Lossy
Bits/(Pixel*Frame) : 0.253
Stream size : 1.12 GiB (77%)
Writing library : XviD 1.2.1 (UTC 2008-12-04)
Audio #1
ID : 1
Format : MPEG Audio
Format version : Version 1
Format profile : Layer 3
Codec ID : 55
Codec ID/Hint : MP3
Duration : 2h 1mn
Bit rate mode : Constant
Bit rate : 128 Kbps
Channel(s) : 2 channels
Sampling rate : 48.0 KHz
Compression mode : Lossy
Stream size : 111 MiB (7%)
Alignment : Aligned on interleaves
Interleave, duration : 42 ms (1.00 video frame)
Interleave, preload duration : 504 ms
Title : MVO [Cinema Prestige]
Writing library : LAME3.98r
Encoding settings : -m s -V 4 -q 2 -lowpass 17 -b 128
Audio #2
ID : 2
Format : MPEG Audio
Format version : Version 1
Format profile : Layer 3
Codec ID : 55
Codec ID/Hint : MP3
Duration : 2h 1mn
Bit rate mode : Constant
Bit rate : 128 Kbps
Channel(s) : 2 channels
Sampling rate : 48.0 KHz
Compression mode : Lossy
Stream size : 111 MiB (7%)
Alignment : Aligned on interleaves
Interleave, duration : 42 ms (1.00 video frame)
Interleave, preload duration : 504 ms
Title : DVO [Tycoon]
Writing library : LAME3.98r
Encoding settings : -m s -V 4 -q 2 -lowpass 17 -b 128
Audio #3
ID : 3
Format : MPEG Audio
Format version : Version 1
Format profile : Layer 3
Codec ID : 55
Codec ID/Hint : MP3
Duration : 2h 1mn
Bit rate mode : Constant
Bit rate : 128 Kbps
Channel(s) : 2 channels
Sampling rate : 48.0 KHz
Compression mode : Lossy
Stream size : 111 MiB (7%)
Alignment : Aligned on interleaves
Interleave, duration : 42 ms (1.00 video frame)
Interleave, preload duration : 504 ms
Title : Original
Writing library : LAME3.98r
Encoding settings : -m s -V 4 -q 2 -lowpass 17 -b 128

Скриншот c названием фильма

Скриншоты




Показать сообщения:    

Текущее время: 09-Дек 04:58

Часовой пояс: UTC + 3


Вы не можете начинать темы
Вы не можете отвечать на сообщения
Вы не можете редактировать свои сообщения
Вы не можете удалять свои сообщения
Вы не можете голосовать в опросах
Вы не можете прикреплять файлы к сообщениям
Вы не можете скачивать файлы