(Orchestral) W.A.Mozart - Symphonien Nrn.40 und 41 | Eine kleine Nachtmusik | Ouverturen: Don Giovanni • Die Zauberflote • Le nozze di Figaro (Felix Prohaska) - 2003, FLAC (image+.cue) lossless


 

[Цитировать]

W.A. Mozart
Symphonies 40 & 41 • Eine Kleine Nachtmusik • Opera Overtures
Wiener Staatsopernorchester - Felix Prohaska
--- Жанр: Orchestral
Страна-производитель диска: USA
Год издания диска: 2003
Издатель (лейбл): Vanguard
Дата записи: 1950s
Аудиокодек: FLAC
Тип рипа: image+.cue
Битрейт аудио: lossless
Продолжительность: 85'07''
Источник: собственный рип
Наличие сканов в содержимом раздачи: да
Треклист:

CD1

[01] Symphonie Nr.41 »Jupiter«: I. Allegro vivace
[02] II. Andante cantabile
[03] III. Menuetto (allegretto)
[04] IV. Finale (Allegro molto)
[05] Ouverture zu »Don Giovanni«
[06] Ouverture zu »Le nozze di Figaro«
[07] Ouverture zu »Die Zauberflöte«

Лог создания рипа

Exact Audio Copy V1.0 beta 3 from 29. August 2011
EAC extraction logfile from 2. November 2012, 20:29
Wiener Staatsopernorchester - F.Prohaska / W.A.Mozart - Symphonien 40 und 41 (CD1)
Used drive : TSSTcorpCDDVDW SN-208BB Adapter: 0 ID: 1
Read mode : Secure
Utilize accurate stream : Yes
Defeat audio cache : Yes
Make use of C2 pointers : No
Read offset correction : 6
Overread into Lead-In and Lead-Out : No
Fill up missing offset samples with silence : Yes
Delete leading and trailing silent blocks : No
Null samples used in CRC calculations : Yes
Used interface : Native Win32 interface for Win NT & 2000
Used output format : User Defined Encoder
Selected bitrate : 1024 kBit/s
Quality : High
Add ID3 tag : No
Command line compressor : C:\Program Files (x86)\FLAC\flac.exe
Additional command line options : -T "COMMENT=rip by el coronel, rutracker.org" -8 -V %source%
TOC of the extracted CD
Track | Start | Length | Start sector | End sector
---------------------------------------------------------
1 | 0:00.00 | 8:06.02 | 0 | 36451
2 | 8:06.02 | 8:15.63 | 36452 | 73639
3 | 16:21.65 | 4:48.10 | 73640 | 95249
4 | 21:10.00 | 6:09.33 | 95250 | 122957
5 | 27:19.33 | 5:48.13 | 122958 | 149070
6 | 33:07.46 | 4:17.21 | 149071 | 168366
7 | 37:24.67 | 6:45.24 | 168367 | 198765
Range status and errors
Selected range
Filename J:\Music\Mozart 40 41 Prohaska\W.A.Mozart - Symphonien 40 und 41 (F.Prohaska) (CD1).wav
Peak level 100.0 %
Extraction speed 2.9 X
Range quality 100.0 %
Test CRC 954C6572
Copy CRC 954C6572
Copy OK
No errors occurred
AccurateRip summary
Track 1 accurately ripped (confidence 1) [CE6C6DBE] (AR v2)
Track 2 accurately ripped (confidence 1) [708FCFE6] (AR v2)
Track 3 accurately ripped (confidence 1) [8B0274B6] (AR v2)
Track 4 accurately ripped (confidence 1) [FCE9A306] (AR v2)
Track 5 accurately ripped (confidence 1) [B8238A7C] (AR v2)
Track 6 accurately ripped (confidence 1) [560079D2] (AR v2)
Track 7 accurately ripped (confidence 1) [5133A1F0] (AR v2)
All tracks accurately ripped
End of status report
==== Log checksum 5FA03F7748A67D1A568B5DDA7B59ED3F53CEFC34FCF296760D52DB69CC1F5FC3 ====

Содержание индексной карты (.CUE)

REM GENRE Classical
REM DATE 2003
REM DISCID 6B0A5A07
REM COMMENT "ExactAudioCopy v1.0b3"
PERFORMER "Wiener Staatsopernorchester - F.Prohaska"
TITLE "W.A.Mozart - Symphonien 40 und 41 (CD1)"
FILE "W.A.Mozart - Symphonien 40 und 41 (F.Prohaska) (CD1).flac" WAVE
TRACK 01 AUDIO
TITLE "Symphonie Nr.41 'Jupiter': I. Allegro vivace"
PERFORMER "Wiener Staatsopernorchester - F.Prohaska"
INDEX 01 00:00:00
TRACK 02 AUDIO
TITLE "II. Andante cantabile"
PERFORMER "Wiener Staatsopernorchester - F.Prohaska"
INDEX 01 08:06:02
TRACK 03 AUDIO
TITLE "III. Menuetto (allegretto)"
PERFORMER "Wiener Staatsopernorchester - F.Prohaska"
INDEX 01 16:21:65
TRACK 04 AUDIO
TITLE "IV. Finale (Allegro molto)"
PERFORMER "Wiener Staatsopernorchester - F.Prohaska"
INDEX 01 21:10:00
TRACK 05 AUDIO
TITLE "Ouverture zu 'Don Giovanni'"
PERFORMER "Wiener Staatsopernorchester - F.Prohaska"
INDEX 01 27:19:33
TRACK 06 AUDIO
TITLE "Ouverture zu 'Le nozze di Figaro'"
PERFORMER "Wiener Staatsopernorchester - F.Prohaska"
INDEX 01 33:07:46
TRACK 07 AUDIO
TITLE "Ouverture zu 'Die Zauberfloete'"
PERFORMER "Wiener Staatsopernorchester - F.Prohaska"
INDEX 01 37:24:67

CD2

[01] Serenade »Eine Kleine Nachtmusik«: I. Allegro
[02] II. Romance (andante)
[03] III. Menuetto (allegretto)
[04] IV. Rondo (allegro)
[05] Symphonie Nr.40: I. Allegro molto
[06] II. Andante
[07] III. Allegretto
[08] IV. Allegro assai

Лог создания рипа

Exact Audio Copy V1.0 beta 3 from 29. August 2011
EAC extraction logfile from 2. November 2012, 21:03
Wiener Staatsopernorchester - F.Prohaska / W.A.Mozart - Symphonien 40 und 41 (CD2)
Used drive : TSSTcorpCDDVDW SN-208BB Adapter: 0 ID: 1
Read mode : Secure
Utilize accurate stream : Yes
Defeat audio cache : Yes
Make use of C2 pointers : No
Read offset correction : 6
Overread into Lead-In and Lead-Out : No
Fill up missing offset samples with silence : Yes
Delete leading and trailing silent blocks : No
Null samples used in CRC calculations : Yes
Used interface : Native Win32 interface for Win NT & 2000
Used output format : User Defined Encoder
Selected bitrate : 1024 kBit/s
Quality : High
Add ID3 tag : No
Command line compressor : C:\Program Files (x86)\FLAC\flac.exe
Additional command line options : -T "COMMENT=rip by el coronel, rutracker.org" -8 -V %source%
TOC of the extracted CD
Track | Start | Length | Start sector | End sector
---------------------------------------------------------
1 | 0:00.00 | 6:15.57 | 0 | 28181
2 | 6:15.57 | 6:13.25 | 28182 | 56181
3 | 12:29.07 | 2:24.16 | 56182 | 66997
4 | 14:53.23 | 3:10.72 | 66998 | 81319
5 | 18:04.20 | 5:46.34 | 81320 | 107303
6 | 23:50.54 | 8:11.30 | 107304 | 144158
7 | 32:02.09 | 3:55.04 | 144159 | 161787
8 | 35:57.13 | 4:59.25 | 161788 | 184237
Range status and errors
Selected range
Filename J:\Music\Mozart 40 41 Prohaska\W.A.Mozart - Symphonien 40 und 41 (F.Prohaska) (CD2).wav
Peak level 100.0 %
Extraction speed 2.8 X
Range quality 99.9 %
Test CRC CA1B8DC8
Copy CRC CA1B8DC8
Copy OK
No errors occurred
AccurateRip summary
Track 1 accurately ripped (confidence 1) [CD5A79CD] (AR v2)
Track 2 accurately ripped (confidence 1) [F9E86BDD] (AR v2)
Track 3 accurately ripped (confidence 1) [DFB2744F] (AR v2)
Track 4 accurately ripped (confidence 1) [207A2710] (AR v2)
Track 5 accurately ripped (confidence 1) [4A40EC9F] (AR v2)
Track 6 accurately ripped (confidence 1) [4B633FD6] (AR v2)
Track 7 accurately ripped (confidence 1) [EBBA540C] (AR v2)
Track 8 accurately ripped (confidence 1) [FC81EE8C] (AR v2)
All tracks accurately ripped
End of status report
==== Log checksum 375DFB637EA259A569EAB21710CB5A71914C8E7063D5465B227308D31198698C ====

Содержание индексной карты (.CUE)

REM GENRE Classical
REM DATE 2003
REM DISCID 70099808
REM COMMENT "ExactAudioCopy v1.0b3"
PERFORMER "Wiener Staatsopernorchester - F.Prohaska"
TITLE "W.A.Mozart - Symphonien 40 und 41 (CD2)"
FILE "W.A.Mozart - Symphonien 40 und 41 (F.Prohaska) (CD2).flac" WAVE
TRACK 01 AUDIO
TITLE "Serenade G-Dur 'Eine Kleine Nachtmusik': I. Allegro"
PERFORMER "Wiener Staatsopernorchester - F.Prohaska"
FLAGS PRE DCP
INDEX 01 00:00:00
TRACK 02 AUDIO
TITLE "II. Romance (andante)"
PERFORMER "Wiener Staatsopernorchester - F.Prohaska"
FLAGS PRE DCP
INDEX 01 06:15:57
TRACK 03 AUDIO
TITLE "III. Menuetto (allegretto)"
PERFORMER "Wiener Staatsopernorchester - F.Prohaska"
FLAGS PRE DCP
INDEX 01 12:29:07
TRACK 04 AUDIO
TITLE "IV. Rondo (allegro)"
PERFORMER "Wiener Staatsopernorchester - F.Prohaska"
FLAGS PRE DCP
INDEX 01 14:53:23
TRACK 05 AUDIO
TITLE "Symphonie Nr.40: I. Allegro molto"
PERFORMER "Wiener Staatsopernorchester - F.Prohaska"
FLAGS PRE DCP
INDEX 01 18:04:20
TRACK 06 AUDIO
TITLE "II. Andante"
PERFORMER "Wiener Staatsopernorchester - F.Prohaska"
FLAGS PRE DCP
INDEX 01 23:50:54
TRACK 07 AUDIO
TITLE "III. Allegretto"
PERFORMER "Wiener Staatsopernorchester - F.Prohaska"
FLAGS PRE DCP
INDEX 01 32:02:09
TRACK 08 AUDIO
TITLE "IV. Allegro assai"
PERFORMER "Wiener Staatsopernorchester - F.Prohaska"
FLAGS PRE DCP
INDEX 01 35:57:13
Исполнители:
Wiener Staatsopernorchester - Felix Prohaska
Доп. информация: неповторимый шарм венских записей 50-ых годов.



Показать сообщения:    

Текущее время: 06-Дек 22:52

Часовой пояс: UTC + 3


Вы не можете начинать темы
Вы не можете отвечать на сообщения
Вы не можете редактировать свои сообщения
Вы не можете удалять свои сообщения
Вы не можете голосовать в опросах
Вы не можете прикреплять файлы к сообщениям
Вы не можете скачивать файлы