(Classical, contemporary) Arvo Pärt (Part) - Te Deum; Berliner Messe; Wallfahrtslied; Dopo la vittoria - Chor des Bayerischen Rundfunks, Munchner Rundfunkorchester, Peter Dijkstra - 2015, FLAC (image+.cue) lossless


Статистика раздачи [Обновить пиров]
Размер:  267 MB   |    Зарегистрирован:  8 месяцев 14 дней   |    Скачан:  0 раз

Полного источника не было: Никогда

 
   
 
 
 

[Цитировать]

Arvo Pärt (Part) - Te Deum; Berliner Messe; Wallfahrtslied; Dopo la vittoria - Chor des Bayerischen Rundfunks, Münchner Rundfunkorchester, Peter Dijkstra
Жанр: Classical, contemporary
Страна-производитель диска: Germany
Год издания диска: 2015
Издатель (лейбл): BR Klassik
Номер по каталогу: 900511
Дата записи: 2012, 2014
Аудиокодек: FLAC
Тип рипа: image+.cue
Битрейт аудио: lossless
Продолжительность: 67:06
Источник: собственный рип
Наличие сканов в содержимом раздачи: да
Треклист:
Arvo Pärt
[1] Te Deum
for three choirs, prepared piano, string orchestra and tape
Max Hanft piano
[2] Wallfahrtslied
Version for men’s choir and string orchestra
Berliner Messe for mixed choir and string orchestra
[3] Kyrie
[4] Gloria
[5] Dopo la vittoria
Little cantata for choir a cappella
Berliner Messe
[6] Credo
[7] Sanctus
[8] Agnus Dei
Исполнители:
Chor des Bayerischen Rundfunks
Münchner Rundfunkorchester
Peter Dijkstra
conductor

Лог создания рипа

Exact Audio Copy V1.1 from 23. June 2015
EAC extraction logfile from 15. February 2016, 23:11
Chor des Bayerischen Rundfunks, Münchner Rundfunkorchester, Peter Dijkstra / Arvo Pärt - Te Deum; Wallfahrtslied; Berliner Messe
Used drive : HL-DT-STDVDRAM GU70N Adapter: 1 ID: 0
Read mode : Secure
Utilize accurate stream : Yes
Defeat audio cache : Yes
Make use of C2 pointers : No
Read offset correction : 48
Overread into Lead-In and Lead-Out : No
Fill up missing offset samples with silence : Yes
Delete leading and trailing silent blocks : No
Null samples used in CRC calculations : Yes
Used interface : Native Win32 interface for Win NT & 2000
Used output format : User Defined Encoder
Selected bitrate : 128 kBit/s
Quality : High
Add ID3 tag : No
Command line compressor : C:\Program Files (x86)\Exact Audio Copy\Flac\flac.exe
Additional command line options : -V -8 -T "Date=%year%" -T "Genre=%genre%" %source%
TOC of the extracted CD
Track | Start | Length | Start sector | End sector
---------------------------------------------------------
1 | 0:00.00 | 31:23.00 | 0 | 141224
2 | 31:23.00 | 8:18.00 | 141225 | 178574
3 | 39:41.00 | 3:30.00 | 178575 | 194324
4 | 43:11.00 | 4:10.00 | 194325 | 213074
5 | 47:21.00 | 9:42.00 | 213075 | 256724
6 | 57:03.00 | 4:18.00 | 256725 | 276074
7 | 61:21.00 | 3:24.00 | 276075 | 291374
8 | 64:45.00 | 2:19.00 | 291375 | 301799
Range status and errors
Selected range
Filename C:\temp\Part - Te Deum; Wallfahrtslied; Berliner Messe\Part - Te Deum; Wallfahrtslied; Berliner Messe.wav
Peak level 99.7 %
Extraction speed 2.2 X
Range quality 100.0 %
Test CRC FCA95D59
Copy CRC FCA95D59
Copy OK
No errors occurred
AccurateRip summary
Track 1 accurately ripped (confidence 1) [F0C05E45] (AR v2)
Track 2 accurately ripped (confidence 1) [387FA567] (AR v2)
Track 3 accurately ripped (confidence 1) [558E1822] (AR v2)
Track 4 accurately ripped (confidence 1) [4A398558] (AR v2)
Track 5 accurately ripped (confidence 1) [C1AEB619] (AR v2)
Track 6 accurately ripped (confidence 1) [504583F5] (AR v2)
Track 7 accurately ripped (confidence 1) [A255516C] (AR v2)
Track 8 accurately ripped (confidence 1) [4B5E2A0D] (AR v2)
All tracks accurately ripped
End of status report
==== Log checksum 069893A75EF34F111C9137970F7C85DC8A8D14D4DE1BC8951D60491629AD6CF0 ====
[teatrix.ru].t23073.torrent 
Торрент: Зарегистрирован [ 2016-03-21 00:33 ] · 6DE1165ED42C4917FF8EC996682F459E033BA9CB

Скачать .torrent

Скачать

22 KB

Статус: проверено
Скачан: 0 раз
Размер: 267 MB
terms.php



Быстрый ответ

Имя:

      
Для отправки сообщений необходимо включить JavaScript
Показать сообщения:    

Текущее время: 04-Дек 02:51

Часовой пояс: UTC + 3


Вы можете начинать темы
Вы можете отвечать на сообщения
Вы не можете редактировать свои сообщения
Вы не можете удалять свои сообщения
Вы не можете голосовать в опросах
Вы не можете прикреплять файлы к сообщениям
Вы можете скачивать файлы