Легендарные хиты Эдит Пиаф и Фрэнка Синатры [2016 г., Концерт-посвящение, SATRip] Московский театр мюзикла


 

[Цитировать]

Легендарные хиты Эдит Пиаф и Фрэнка Синатры К 100-летию Эдит Пиаф и Фрэнка Синатры.
Название театра: Московский театр мюзикла.
Год выпуска: 2016.
Жанр: Концерт-посвящение.
Продолжительность: 01:24:26.
Ведущий вечера: художественный руководитель Театра мюзикла Михаил Ефимович Швыдкой.
Участники вечера:
Юлия Савичева, Наталья Быстрова, Дмитрий Ермак, Ирина Зайцева, Иван Викулов, Павел Иванов, Оксана Костецкая, Виктория Пивко, Иван Громов, Вита Ершова, Алексей Коган, Станислав Беляев, Елена Моисеева, Ксения Ларина, Анна Гученкова, Карина Арбельяни, Екатерина Новоселова, Денис Котельников, ансамбль Театра Мюзикла, артисты Театра мюзикла, артисты Театра оперетты.
Молодежный оркестр Калужской филармонии.
Дирижер
- Арсений Ткаченко.
Описание:
Вечер посвящён 100-летию выдающихся легенд музыкальной культуры XX века - Эдит Пиаф и Фрэнка Синатры.
Их объединяет не только всемирная слава, не только величайший талант, не только безмерная любовь публики, но и даты рождения. И Пиаф, и Синатра родились в декабре 1915 года.
"Парижский воробышек", Эдит Пиаф стала всемирно известна благодаря своим песням. Их она исполняла страстно и с огромной любовью. Искренность и подлинность чувств в голосе Пиаф подкупали миллионы людей. Но её удивительная судьба потрясла мир не менее, чем её талант. В этой хрупкой женщине - сильной, отважной и талантливой - жила неутомимая потребность в любви.
Фрэнк Синатра по праву считается одним из самых любимых артистов всего мира: он снялся во множестве кинофильмов, был популярным радиоведущим, но, конечно, главное дело его жизни - музыка. Синатра записал около 100 синглов, каждый из которых стал хитом. "Он словно сливается с песней, даже на стадионе с десятком тысяч слушателей каждый чувствовал - Синатра поёт только для него", - писали об артисте американские критики. "Он сможет спеть даже телефонную книгу и все будут заворожены", - вторила европейская пресса. В 1954 году Синатра стал обладателем "Оскара", а на Аллее славы в Голливуде была заложена его именная звезда за достижения и вклад в области музыки.

Трек-лист

01. Non, je ne regrette rien (Нет, я не жалею ни о чём) (музыка Шарля Дюмона, слова Мишеля Вокера) (исполняет Юлия Савичева),
02. Johnny, tu n'es pas un ange (Джонни, ты не ангел) (Francis Lemarque/Les Paul) (исполняет Наталья Быстрова),
03. Strangers in the Night (Незнакомцы в ночи) (Аво Увезян, Берт Кемпферт) (исполняет Дмитрий Ермак),
04. Padam... padam... (музыка Норбера Глансбера, слова Анри Конте) (исполняет Ирина Зайцева),
05. The Lady Is a Tramp (Леди-Бродяга) (музыка Ричарда Роджерса, слова Лоренца Харта) (исполняют Иван Викулов и Павел Иванов),
06. La vic en rose (Жизнь в розовом цвете) (музыка М. Луиги, слова Эдит Пиаф) (исполняет Оксана Костецкая),
07. Mon Dieu (Боже мой) (музыка Шарля Дюмона, слова Мишеля Вокера) (исполняет Виктория Пивко),
08. Unforgettable (Незабываемая) (музыка и слова Нэта Кинга Коула) (исполняют Иван Громов и Вита Ершова),
09. Exodus (Исход) (музыка Эрнеста Голда, слова Эдди Марне) (исполняет Алексей Коган),
10. That's Life (Такова жизнь) (Фрэнк Синатра) (исполняют Станислав Беляев, ансамбль Театра Мюзикла),
11. Milord (Милорд) (Эдит Пиаф) (исполняет Елена Моисеева),
12. Let It Snow (Снег идет, снег идет, снег идет...) (Фрэнк Синатра) (перевод) (исполняет ансамбль Театра Мюзикла),
13. La foule (Толпа) (музыка Энджела Кебрала, слова Мишель Ривгош) (исполняет Ксения Ларина),
14. New York (Нью-Йорк) (Фрэнк Синатра) (исполняет Анна Гученкова),
15. A Paris (Париж) (Эдит Пиаф) (исполняет Алексей Коган),
16. All the things you are (Всё - это ты) (Фрэнк Синатра) (перевод) (исполняют Карина Арбельяни и Иван Викулов),
17. The Girl from Ipanema (Девушка из Ипанемы) (музыка Антониу Карлоса Жобина, слова Винисиуса ди Морайса) (перевод) (исполняют Екатерина Новоселова и Денис Котельников),
18. My Way (Мой путь) (музыка Жиля Тибо, слова Пола Анки) (исполняют Иван Викулов, Павел Иванов и Денис Котельников),
19. Финальная песня (исполняют участники концерта),
20. Let It Snow (Снег идет, снег идет, снег идет...) (Фрэнк Синатра) (перевод) (исполняют участники концерта).
Дополнительная информация:
Страна: Россия .
Выпущено: © ГТРК "Культура".
Телеверсия вечера, состоявшегося 9 декабря 2015 года.

Трансляция ГТРК "Культура" в 17:35 07 февраля 2016 г.

Релиз
Рип lesik689.

Качество видео:...SATRip
Формат:.................AVI
Видео:..704x416 (1.69:1), 25 fps, XviD MPEG-4 ~1901 kbps avg, 0.26 bit/pixel
Аудио:..48 kHz, AC3 Dolby Digital, 2/0 (L,R) ch, ~224 kbps

Отчет Media Info

General
Complete name : Legendarnye.hity.Edit.Piaf.i.Frenka.Sinatry_Moskovskij.teatr.myuzikla.2015.XviD.SATRip.fenixclub.avi
Format : AVI
Format/Info : Audio Video Interleave
Format profile : OpenDML
File size : 1.26 GiB
Duration : 1h 24mn
Overall bit rate : 2 132 Kbps
Writing library : MPlayer
Video
ID : 0
Format : MPEG-4 Visual
Format profile : Advanced Simple@L5
Format settings, BVOP : 2
Format settings, QPel : No
Format settings, GMC : No warppoints
Format settings, Matrix : Default (MPEG)
Codec ID : XVID
Codec ID/Hint : XviD
Duration : 1h 24mn
Bit rate : 1 902 Kbps
Width : 704 pixels
Height : 416 pixels
Display aspect ratio : 16:9
Frame rate : 25.000 fps
Color space : YUV
Chroma subsampling : 4:2:0
Bit depth : 8 bits
Scan type : Progressive
Compression mode : Lossy
Bits/(Pixel*Frame) : 0.260
Stream size : 1.12 GiB (89%)
Writing library : XviD 73
Audio
ID : 1
Format : AC-3
Format/Info : Audio Coding 3
Mode extension : CM (complete main)
Format settings, Endianness : Big
Codec ID : 2000
Duration : 1h 24mn
Bit rate mode : Constant
Bit rate : 224 Kbps
Channel(s) : 2 channels
Channel positions : Front: L R
Sampling rate : 48.0 KHz
Frame rate : 31.250 fps (1536 spf)
Compression mode : Lossy
Stream size : 135 MiB (11%)
Alignment : Aligned on interleaves
Interleave, duration : 480 ms (12.00 video frames)
Interleave, preload duratio : 960 ms.

Скриншот с названием

Скриншоты


Альтернативный хост





Показать сообщения:    

Текущее время: 07-Дек 19:29

Часовой пояс: UTC + 3


Вы не можете начинать темы
Вы не можете отвечать на сообщения
Вы не можете редактировать свои сообщения
Вы не можете удалять свои сообщения
Вы не можете голосовать в опросах
Вы не можете прикреплять файлы к сообщениям
Вы не можете скачивать файлы