Икс-Икс-Игрек / XXY (Лусия Пуэнсо / Lucia Puenzo) [2007, Франция, Испания, Аргентина, драма, BDRemux 1080p] DVO + Sub Eng + Original Spa


 

[Цитировать]

Икс-Икс-Игрек / XXY
Страна: Франция, Испания, Аргентина
Студия: Historias Cinematograficas СПАМ Wanda Visiуn S.A., Pyramide Films
Жанр: драма
Год выпуска: 2007
Продолжительность: 01:30:46
Перевод: Профессиональный (двухголосый закадровый)
Cубтитры: английские
Оригинальная аудиодорожка: испанский
Режиссер: Лусия Пуэнсо / Lucia Puenzo
В ролях: Рикардо Дарин /Ricardo Darнn/, Валерия Бертучелли /Valeria Bertuccelli/, Герман Паласьос /Germбn Palacios/, Каролина Пеллерити /Carolina Pelleritti/, Мартин Пироянски /Martнn Piroyansky/, Инес Эфрон /Inйs Efron/, Джуилермо Анжелелли /Guillermo Angelelli/, Цесар Тронкозо /Cйsar Troncoso/, Жан Пьер Рекьераз /Jean Pierre Reguerraz/, Айлин Салас /Ailнn Salas/, Лусиано Нобиль /Luciano Nуbile/
Описание: Хромосомы-хромосомы, XXY. Они дали название фильму о подростке, который в пятнадцать лет ещё точно не знает, кто он – женщина? Мужчина? Обычно двух мнений быть не может, и тело явно обозначает свою принадлежность к определённому полу, помогая душе. Но как быть тому, кто родился не мужчиной, не женщиной, а гермафродитом? До 15 лет Алекс (Алекса?) так и не смогла (не смог?) определиться. Оказавшись в компании стеснительного подростка, точно знающего, что он – юноша, наш герой (героиня?) решает проверить себя. Итог проверки одинаково удивителен и для неё (для него?), и для партнёра-девственника, который с ужасом понимает, что получает удовольствие от роли пассивного содомита.
II Сэмпл II IMDB II
Доп. информация:
В оригинальной дороге DTS-HD MA тылы и центральный канал оказались пустыми, поэтому дорогу пересобрал, добавил оригинальную шестиканалку с раздачи AlekceyR76
Тип релиза: BDRemux 1080p
Контейнер: MKV
Видео: AVC / 1920x1080 / 16:9 / 23.976fps / Bit rate 24000Kbps / High@L4.1
Аудио 1: AC3 / 48.0 KHz / 5.1 / 448kbps / rus / DVO
Аудио 2: DTS-HD MA / 48.0 KHz / 2.1 / 1920kbps / 16bit (DTS Core 48.0 KHz / 2.1 / 1509kbps / 16bit) spa
Аудио 3: AC3 / 48.0 KHz / 5.1 / 448kbps / spa
Формат субтитров: softsub (SRT)

MediaInfo

Общее
Уникальный идентификатор : 217283535384576188404286102883099760579 (0xA37749669C0D31FBABF8811213B057C3)
Полное имя : H:\!_Torrent\XXY.2007.BDRemux.1080p_by_vedigo.mkv
Формат : Matroska
Версия формата : Version 4 / Version 2
Размер файла : 16,5 Гбайт
Продолжительность : 1 ч. 30 м.
Общий поток : 26,0 Мбит/сек
Название фильма : XXY.2007.BDRemux.1080p_by_vedigo
Дата кодирования : UTC 2016-02-22 22:34:33
Программа кодирования : mkvmerge v8.9.0 ('Father Daughter') 64bit
Библиотека кодирования : libebml v1.3.3 libmatroska v1.4.4
Видео
Идентификатор : 1
Формат : AVC
Формат/Информация : Advanced Video Codec
Профиль формата : High@L4.1
Параметр CABAC формата : Да
Параметр ReFrames формата : 2 кадра
Параметр GOP формата : M=3, N=15
Идентификатор кодека : V_MPEG4/ISO/AVC
Продолжительность : 1 ч. 30 м.
Вид битрейта : Постоянный
Битрейт : 24,0 Мбит/сек
Ширина : 1920 пикселей
Высота : 1080 пикселей
Соотношение сторон : 16:9
Режим частоты кадров : Постоянный
Частота кадров : 23,976 (24000/1001) кадра/сек
Стандарт вещания : Component
Цветовое пространство : YUV
Субдискретизация насыщенности : 4:2:0
Битовая глубина : 8 бит
Тип развёртки : Прогрессивная
Бит/(Пиксели*Кадры) : 0.483
Размер потока : 14,7 Гбайт (89%)
Заголовок : XXY.2007.BDRemux.1080p_by_vedigo
Default : Да
Forced : Нет
Цветовой диапазон : Limited
Аудио #1
Идентификатор : 2
Формат : AC-3
Формат/Информация : Audio Coding 3
Расширение режима : CM (complete main)
Параметр Endianness формата : Big
Идентификатор кодека : A_AC3
Продолжительность : 1 ч. 30 м.
Вид битрейта : Постоянный
Битрейт : 448 Кбит/сек
Каналы : 6 каналов
Расположение каналов : Front: L C R, Side: L R, LFE
Частота : 48,0 КГц
Частота кадров : 31,250 кадров/сек (1536 spf)
Метод сжатия : С потерями
Размер потока : 291 Мбайт (2%)
Заголовок : DVO
Язык : Russian
Default : Да
Forced : Нет
Аудио #2
Идентификатор : 3
Формат : DTS
Формат/Информация : Digital Theater Systems
Профиль формата : MA / Core
Режим : 16
Параметр Endianness формата : Big
Идентификатор кодека : A_DTS
Продолжительность : 1 ч. 30 м.
Вид битрейта : Переменный / Постоянный
Битрейт : 1920 Кбит/сек / 1509 Кбит/сек
Каналы : 3 канала
Расположение каналов : Front: L R, LFE
Частота : 48,0 КГц
Частота кадров : 93,750 кадра/сек (512 spf)
Битовая глубина : 16 бит
Метод сжатия : Без потерь / Lossy
Размер потока : 1,23 Гбайт (7%)
Заголовок : original @ BD
Язык : Spanish
Default : Нет
Forced : Нет
Аудио #3
Идентификатор : 4
Формат : AC-3
Формат/Информация : Audio Coding 3
Расширение режима : CM (complete main)
Параметр Endianness формата : Big
Идентификатор кодека : A_AC3
Продолжительность : 1 ч. 30 м.
Вид битрейта : Постоянный
Битрейт : 448 Кбит/сек
Каналы : 6 каналов
Расположение каналов : Front: L C R, Side: L R, LFE
Частота : 48,0 КГц
Частота кадров : 31,250 кадров/сек (1536 spf)
Метод сжатия : С потерями
Размер потока : 291 Мбайт (2%)
Заголовок : original @ DVD
Язык : Spanish
Default : Нет
Forced : Нет
Текст
Идентификатор : 5
Формат : UTF-8
Идентификатор кодека : S_TEXT/UTF8
Идентификатор кодека/Информация : UTF-8 Plain Text
Продолжительность : 1 ч. 22 м.
Битрейт : 20 бит/сек
Count of elements : 520
Размер потока : 12,4 Кбайт (0%)
Заголовок : subtitle eng
Язык : English
Default : Нет
Forced : Нет
Меню
00:00:00.000 : en:00:00:00.000
00:15:00.900 : en:00:15:00.900
00:30:02.426 : en:00:30:02.426
00:45:02.700 : en:00:45:02.700
01:00:03.600 : en:01:00:03.600
01:15:04.500 : en:01:15:04.500

Скриншоты


Награды

Каннский кинофестиваль, 2007 год
Победитель (2):
Гран-при жюри «Недели критиков»
Золотая рельса
Гойя, 2008 год
Победитель (1):
Лучший иностранный фильм на испанском языке
МКФ в Эдинбурге, 2007 год
Победитель (1):
Лучший новый режиссер
Ассоциация кинокритиков Аргентины, 2008 год
Победитель (3):
Лучший фильм
Лучший сценарий
Лучшая актриса (Инес Эфрон)
Номинации (5):
Лучший режиссёр
Лучший оператор
Лучший художник-постановщик
Лучшая музыка
Лучший звук
Мексиканская академия кинонаград, 2008 год
Победитель (1):
Серебряный Ариэль (Лучший латиноамериканский фильм)
МКФ в Картахена, 2007 год
Победитель (2):
Лучшая дебютная работа
Лучшая актриса (Инес Эфрон)
Номинации (1):
Лучший фильм
МКФ в Афинах, 2007 год
Победитель (1):
Золотая Афина
МКФ в Бангкоке, 2007 год
Победитель (1):
Лучший фильм

МКФ в Братиславе, 2007 год

Номинации (1):
Гран-при
Хлотрудис, 2009 год
Номинации (2):
Лучший адаптированный сценарий
Лучший актёр второго плана (Рикардо Дарин)
Фестиваль Нового кино в Монреале, 2007 год
Победитель (1):
Награда кинокритиков Квебека
МКФ в Сан-Паулу, 2007 год
Номинации (1):
Награда международного жюри
МКФ геев и лесбиянок в Сан-Франциско, 2008 год
Победитель (1):
Приз зрительских симпатий (Лучший дебютный фильм)



Показать сообщения:    

Текущее время: 22-Янв 04:40

Часовой пояс: UTC + 3


Вы не можете начинать темы
Вы не можете отвечать на сообщения
Вы не можете редактировать свои сообщения
Вы не можете удалять свои сообщения
Вы не можете голосовать в опросах
Вы не можете прикреплять файлы к сообщениям
Вы не можете скачивать файлы