(Classical / Orchestral) Minkus - Don Quijote (Boris Spassov) / Минкус - Дон Кихот - 1995, FLAC (tracks+.cue) lossless


 

[Цитировать]

Léon Minkus - Don Quijote / Людвиг Минкус - Дон Кихот
Жанр: Orchestral
Страна-производитель диска: Germany
Год издания диска: 1995
Издатель (лейбл): Capriccio
Номер по каталогу: B000001WS6
Дата записи: 02/1994
Студия: Sofia, Bulgarian National Radio, Studio I
Аудиокодек: FLAC
Тип рипа: tracks+.cue
Битрейт аудио: lossless
Продолжительность: 02:07:51
Источник: скачано с
сайт-источник/ник/другое: what.cd
Наличие сканов в содержимом раздачи: да
Исполнители:
Sofia National Opera Orchestra conducted by Boris Spassov

Треклист:
CD1:
Prolog
01 - Ouvertüre
02 - Allegro
03 - Auftritt
04 - Allegro Assai
05 - Sancho Dankt Don Quijote Für Die Rettung
Erster akt
06 - Platz In Barcelona
07 - Auftritt Kitri
08 - Kitri Und Basilio
09 - Moreno-Tanz
10 - Szene: Lorenzo, Kitri Und Basilio
11 - Auftritt Gamasch
12 - Seguidilla
13 - Straßentänzer
14 - Tanz Von Espada
15 - Allegro: Torero-Szene
16 - Straßentänzer
17 - Coda
18 - Presto Assai, Allegro Maestoso, Meno Mosso, Tempo Di Marcia
19 - Sancho Pansa Und Mädchen
20 - Kitris Freundinnen
21 - Szene
22 - Variation: Basilio Und Freundinnen
23 - Variation: Kitri
24 - Coda
Zweiter akt
I. Taverna
25 - Einleitung
26 - Auftritt Von Kitri Und Basilio
27 - Spanischer Tanz
28 - Spanischer Tanz Von Mercedes
29 - Karmencitta
30 - Solo A Gitana
31 - Tanz Der Matrosen
32 - Szene
33 - Coda
CD2:
Zweiter akt
II. Zigeunerlager (Windmühlen)
01 - Zigeuner-Tanz I
02 - Zigeuner-Tanz II
03 - Marionetten-Theater: Aufführungsszene, Don Quijotes Wahnsinn
Dritter akt
04 - Waldszene
05 - Don Quijotes Traum
06 - Allegretto
07 - Variation: Dryad's Frauen
08 - Variation: Dryad's Frauen ("souvenir Du Ball")
09 - Amour
10 - Variation: Dulcinea (Kitri)
11 - Coda
Vierter akt
Im tempel des herzogs
12 - Marsch
13 - Szene
14 - Amour
15 - Klassische Variation I
16 - Klassische Variation II
17 - Entrée
18 - Adagio
19 - Variation: Basilio
20 - Variation: Kitri
21 - Variation: Kitri (Version Of No. 9)
22 - Coda
23 - Finale: Spanischer Tanz

Лог создания рипаCD1

Exact Audio Copy V1.0 beta 4 from 7. December 2014
EAC extraction logfile from 4. March 2015, 14:19
Léon Minkus (Sofia National Opera Orchestra - Boris Spassov) / Don Quijote Disc 1
Used drive : HL-DT-STDVDRAM GH22NS90 Adapter: 1 ID: 1
Read mode : Secure
Utilize accurate stream : Yes
Defeat audio cache : Yes
Make use of C2 pointers : No
Read offset correction : 6
Overread into Lead-In and Lead-Out : No
Fill up missing offset samples with silence : Yes
Delete leading and trailing silent blocks : No
Null samples used in CRC calculations : Yes
Used interface : Native Win32 interface for Win NT & 2000
Gap handling : Appended to previous track
Used output format : User Defined Encoder
Selected bitrate : 1024 kBit/s
Quality : High
Add ID3 tag : No
Command line compressor : C:\Program Files (x86)\Exact Audio Copy Flac\Flac\flac.exe
Additional command line options : -8 -V -T "ARTIST=%artist%" -T "TITLE=%title%" -T "ALBUM=%albumtitle%" -T "DATE=%year%" -T "TRACKNUMBER=%tracknr%" -T "GENRE=%genre%" -T "PERFORMER=%albuminterpret%" -T "COMPOSER=%composer%" %haslyrics%--tag-from-file=LYRICS="%lyricsfile%"%haslyrics% -T "ALBUMARTIST=%albumartist%" -T "DISCNUMBER=%cdnumber%" -T "TOTALDISCS=%totalcds%" -T "TOTALTRACKS=%numtracks%" -T "COMMENT=%comment%" %source% -o %dest%
TOC of the extracted CD
Track | Start | Length | Start sector | End sector
---------------------------------------------------------
1 | 0:00.37 | 3:55.00 | 37 | 17661
2 | 3:55.37 | 0:59.50 | 17662 | 22136
3 | 4:55.12 | 3:24.73 | 22137 | 37509
4 | 8:20.10 | 1:02.17 | 37510 | 42176
5 | 9:22.27 | 4:09.10 | 42177 | 60861
6 | 13:31.37 | 1:06.13 | 60862 | 65824
7 | 14:37.50 | 2:10.35 | 65825 | 75609
8 | 16:48.10 | 1:52.02 | 75610 | 84011
9 | 18:40.12 | 1:05.50 | 84012 | 88936
10 | 19:45.62 | 1:44.55 | 88937 | 96791
11 | 21:30.42 | 1:35.35 | 96792 | 103951
12 | 23:06.02 | 1:30.10 | 103952 | 110711
13 | 24:36.12 | 1:38.60 | 110712 | 118121
14 | 26:14.72 | 1:06.65 | 118122 | 123136
15 | 27:21.62 | 1:54.50 | 123137 | 131736
16 | 29:16.37 | 2:26.43 | 131737 | 142729
17 | 31:43.05 | 1:10.10 | 142730 | 147989
18 | 32:53.15 | 2:47.65 | 147990 | 160579
19 | 35:41.05 | 2:11.32 | 160580 | 170436
20 | 37:52.37 | 3:26.53 | 170437 | 185939
21 | 41:19.15 | 5:14.62 | 185940 | 209551
22 | 46:34.02 | 0:44.73 | 209552 | 212924
23 | 47:19.00 | 0:49.07 | 212925 | 216606
24 | 48:08.07 | 3:07.30 | 216607 | 230661
25 | 51:15.37 | 1:57.05 | 230662 | 239441
26 | 53:12.42 | 2:24.03 | 239442 | 250244
27 | 55:36.45 | 3:11.27 | 250245 | 264596
28 | 58:47.72 | 2:12.58 | 264597 | 274554
29 | 61:00.55 | 3:54.02 | 274555 | 292106
30 | 64:54.57 | 1:30.03 | 292107 | 298859
31 | 66:24.60 | 2:00.00 | 298860 | 307859
32 | 68:24.60 | 5:02.70 | 307860 | 330579
33 | 73:27.55 | 1:24.05 | 330580 | 336884
Track 1
Filename N:\Flac\XX-Trump\Minkus - Don Quijote (Sofia National)\Disc 1\01 - Ouvertüre.wav
Pre-gap length 0:00:02.37
Peak level 60.6 %
Extraction speed 2.1 X
Track quality 100.0 %
Test CRC 84886A3A
Copy CRC 84886A3A
Accurately ripped (confidence 2) [8C769312] (AR v2)
Copy OK
Track 2
Filename N:\Flac\XX-Trump\Minkus - Don Quijote (Sofia National)\Disc 1\02 - Allegro.wav
Pre-gap length 0:00:03.10
Peak level 41.1 %
Extraction speed 1.5 X
Track quality 100.0 %
Test CRC DF059DDF
Copy CRC DF059DDF
Accurately ripped (confidence 2) [C4CE7E79] (AR v2)
Copy OK
Track 3
Filename N:\Flac\XX-Trump\Minkus - Don Quijote (Sofia National)\Disc 1\03 - Auftritt.wav
Peak level 50.5 %
Extraction speed 2.1 X
Track quality 100.0 %
Test CRC 8D7D0A78
Copy CRC 8D7D0A78
Accurately ripped (confidence 2) [EAB3AC31] (AR v2)
Copy OK
Track 4
Filename N:\Flac\XX-Trump\Minkus - Don Quijote (Sofia National)\Disc 1\04 - Allegro Assai.wav
Peak level 98.6 %
Extraction speed 1.5 X
Track quality 100.0 %
Test CRC 2928406C
Copy CRC 2928406C
Accurately ripped (confidence 2) [71D88CE2] (AR v2)
Copy OK
Track 5
Filename N:\Flac\XX-Trump\Minkus - Don Quijote (Sofia National)\Disc 1\05 - Sancho Dankt Don Quijote Für Die Rettung.wav
Peak level 93.9 %
Extraction speed 2.1 X
Track quality 100.0 %
Test CRC 8ADB36BA
Copy CRC 8ADB36BA
Accurately ripped (confidence 2) [ACB8138B] (AR v2)
Copy OK
Track 6
Filename N:\Flac\XX-Trump\Minkus - Don Quijote (Sofia National)\Disc 1\06 - Platz In Barcelona.wav
Pre-gap length 0:00:05.02
Peak level 29.3 %
Extraction speed 1.6 X
Track quality 100.0 %
Test CRC E7CFF0AF
Copy CRC E7CFF0AF
Accurately ripped (confidence 2) [A180ABC5] (AR v2)
Copy OK
Track 7
Filename N:\Flac\XX-Trump\Minkus - Don Quijote (Sofia National)\Disc 1\07 - Auftritt Kitri.wav
Peak level 48.2 %
Extraction speed 1.1 X
Track quality 99.9 %
Test CRC BC860CC7
Copy CRC BC860CC7
Accurately ripped (confidence 2) [AADBFF2F] (AR v2)
Copy OK
Track 8
Filename N:\Flac\XX-Trump\Minkus - Don Quijote (Sofia National)\Disc 1\08 - Kitri Und Basilio.wav
Peak level 28.7 %
Extraction speed 1.8 X
Track quality 100.0 %
Test CRC E4870B29
Copy CRC E4870B29
Accurately ripped (confidence 2) [AC650B2E] (AR v2)
Copy OK
Track 9
Filename N:\Flac\XX-Trump\Minkus - Don Quijote (Sofia National)\Disc 1\09 - Moreno-Tanz.wav
Peak level 47.1 %
Extraction speed 1.5 X
Track quality 100.0 %
Test CRC 2B55D0F3
Copy CRC 2B55D0F3
Accurately ripped (confidence 2) [B4C8E452] (AR v2)
Copy OK
Track 10
Filename N:\Flac\XX-Trump\Minkus - Don Quijote (Sofia National)\Disc 1\10 - Szene- Lorenzo, Kitri Und Basilio.wav
Peak level 39.2 %
Extraction speed 1.8 X
Track quality 100.0 %
Test CRC A129B3CB
Copy CRC A129B3CB
Accurately ripped (confidence 2) [5FACEBF0] (AR v2)
Copy OK
Track 11
Filename N:\Flac\XX-Trump\Minkus - Don Quijote (Sofia National)\Disc 1\11 - Auftritt Gamasch.wav
Peak level 46.3 %
Extraction speed 1.7 X
Track quality 100.0 %
Test CRC C06C5CF3
Copy CRC C06C5CF3
Accurately ripped (confidence 2) [9909E4E8] (AR v2)
Copy OK
Track 12
Filename N:\Flac\XX-Trump\Minkus - Don Quijote (Sofia National)\Disc 1\12 - Seguidilla.wav
Peak level 76.0 %
Extraction speed 1.7 X
Track quality 100.0 %
Test CRC E62D065B
Copy CRC E62D065B
Accurately ripped (confidence 2) [4F2D5E49] (AR v2)
Copy OK
Track 13
Filename N:\Flac\XX-Trump\Minkus - Don Quijote (Sofia National)\Disc 1\13 - Straßentänzer.wav
Peak level 86.2 %
Extraction speed 1.7 X
Track quality 100.0 %
Test CRC 56121F23
Copy CRC 56121F23
Accurately ripped (confidence 2) [153BA114] (AR v2)
Copy OK
Track 14
Filename N:\Flac\XX-Trump\Minkus - Don Quijote (Sofia National)\Disc 1\14 - Tanz Von Espada.wav
Peak level 47.6 %
Extraction speed 1.5 X
Track quality 100.0 %
Test CRC 893D2D11
Copy CRC 893D2D11
Accurately ripped (confidence 2) [CCF4B10F] (AR v2)
Copy OK
Track 15
Filename N:\Flac\XX-Trump\Minkus - Don Quijote (Sofia National)\Disc 1\15 - Allegro- Torero-Szene.wav
Peak level 59.8 %
Extraction speed 1.8 X
Track quality 100.0 %
Test CRC 215749AC
Copy CRC 215749AC
Accurately ripped (confidence 2) [F1B22450] (AR v2)
Copy OK
Track 16
Filename N:\Flac\XX-Trump\Minkus - Don Quijote (Sofia National)\Disc 1\16 - Straßentänzer.wav
Peak level 71.0 %
Extraction speed 1.9 X
Track quality 100.0 %
Test CRC 13DDA2E1
Copy CRC 13DDA2E1
Accurately ripped (confidence 2) [33EA2B46] (AR v2)
Copy OK
Track 17
Filename N:\Flac\XX-Trump\Minkus - Don Quijote (Sofia National)\Disc 1\17 - Coda.wav
Peak level 71.2 %
Extraction speed 1.6 X
Track quality 100.0 %
Test CRC 581C9E68
Copy CRC 581C9E68
Accurately ripped (confidence 2) [273AAAF0] (AR v2)
Copy OK
Track 18
Filename N:\Flac\XX-Trump\Minkus - Don Quijote (Sofia National)\Disc 1\18 - Presto Assai, Allegro Maestoso, Meno Mosso, Tempo Di Marcia.wav
Peak level 64.0 %
Extraction speed 2.0 X
Track quality 100.0 %
Test CRC 5A4586E5
Copy CRC 5A4586E5
Accurately ripped (confidence 2) [E2144744] (AR v2)
Copy OK
Track 19
Filename N:\Flac\XX-Trump\Minkus - Don Quijote (Sofia National)\Disc 1\19 - Sancho Pansa Und Mädchen.wav
Peak level 58.5 %
Extraction speed 1.9 X
Track quality 100.0 %
Test CRC A34818CC
Copy CRC A34818CC
Accurately ripped (confidence 2) [5781B65F] (AR v2)
Copy OK
Track 20
Filename N:\Flac\XX-Trump\Minkus - Don Quijote (Sofia National)\Disc 1\20 - Kitris Freundinnen.wav
Peak level 54.3 %
Extraction speed 2.0 X
Track quality 100.0 %
Test CRC D3705E3B
Copy CRC D3705E3B
Accurately ripped (confidence 2) [8CBFD5F7] (AR v2)
Copy OK
Track 21
Filename N:\Flac\XX-Trump\Minkus - Don Quijote (Sofia National)\Disc 1\21 - Szene.wav
Peak level 81.4 %
Extraction speed 2.2 X
Track quality 100.0 %
Test CRC 87934A17
Copy CRC 87934A17
Accurately ripped (confidence 2) [87FFED57] (AR v2)
Copy OK
Track 22
Filename N:\Flac\XX-Trump\Minkus - Don Quijote (Sofia National)\Disc 1\22 - Variation- Basilio Und Freundinnen.wav
Pre-gap length 0:00:01.70
Peak level 91.7 %
Extraction speed 1.3 X
Track quality 100.0 %
Test CRC C5C3DB89
Copy CRC C5C3DB89
Accurately ripped (confidence 2) [038DAD73] (AR v2)
Copy OK
Track 23
Filename N:\Flac\XX-Trump\Minkus - Don Quijote (Sofia National)\Disc 1\23 - Variation- Kitri.wav
Pre-gap length 0:00:02.23
Peak level 60.2 %
Extraction speed 0.6 X
Track quality 99.7 %
Test CRC 84732A56
Copy CRC 84732A56
Accurately ripped (confidence 2) [53732DF2] (AR v2)
Copy OK
Track 24
Filename N:\Flac\XX-Trump\Minkus - Don Quijote (Sofia National)\Disc 1\24 - Coda.wav
Pre-gap length 0:00:01.42
Peak level 100.0 %
Extraction speed 2.0 X
Track quality 100.0 %
Test CRC 59EA00CD
Copy CRC 59EA00CD
Accurately ripped (confidence 2) [7760CFA3] (AR v2)
Copy OK
Track 25
Filename N:\Flac\XX-Trump\Minkus - Don Quijote (Sofia National)\Disc 1\25 - Einleitung.wav
Pre-gap length 0:00:08.60
Peak level 64.4 %
Extraction speed 1.8 X
Track quality 100.0 %
Test CRC BFC90A4B
Copy CRC BFC90A4B
Accurately ripped (confidence 2) [5006C6CB] (AR v2)
Copy OK
Track 26
Filename N:\Flac\XX-Trump\Minkus - Don Quijote (Sofia National)\Disc 1\26 - Auftritt Von Kitri Und Basilio.wav
Peak level 60.4 %
Extraction speed 1.9 X
Track quality 100.0 %
Test CRC 3B1C15FE
Copy CRC 3B1C15FE
Accurately ripped (confidence 2) [83F7810B] (AR v2)
Copy OK
Track 27
Filename N:\Flac\XX-Trump\Minkus - Don Quijote (Sofia National)\Disc 1\27 - Spanischer Tanz.wav
Peak level 49.4 %
Extraction speed 2.0 X
Track quality 100.0 %
Test CRC 6F57F760
Copy CRC 6F57F760
Accurately ripped (confidence 2) [4A30EC0B] (AR v2)
Copy OK
Track 28
Filename N:\Flac\XX-Trump\Minkus - Don Quijote (Sofia National)\Disc 1\28 - Spanischer Tanz Von Mercedes.wav
Peak level 98.6 %
Extraction speed 1.1 X
Track quality 99.9 %
Test CRC 8939FFA6
Copy CRC 8939FFA6
Accurately ripped (confidence 2) [AB9CADA5] (AR v2)
Copy OK
Track 29
Filename N:\Flac\XX-Trump\Minkus - Don Quijote (Sofia National)\Disc 1\29 - Karmencitta.wav
Pre-gap length 0:00:01.03
Peak level 64.3 %
Extraction speed 1.5 X
Track quality 99.9 %
Test CRC 84FFD6A2
Copy CRC 84FFD6A2
Accurately ripped (confidence 2) [9E15C9F0] (AR v2)
Copy OK
Track 30
Filename N:\Flac\XX-Trump\Minkus - Don Quijote (Sofia National)\Disc 1\30 - Solo A Gitana.wav
Pre-gap length 0:00:01.47
Peak level 63.2 %
Extraction speed 1.7 X
Track quality 100.0 %
Test CRC 28F5E9B1
Copy CRC 28F5E9B1
Accurately ripped (confidence 2) [55CAA3DC] (AR v2)
Copy OK
Track 31
Filename N:\Flac\XX-Trump\Minkus - Don Quijote (Sofia National)\Disc 1\31 - Tanz Der Matrosen.wav
Pre-gap length 0:00:01.33
Peak level 52.0 %
Extraction speed 1.8 X
Track quality 100.0 %
Test CRC 34B7CBBD
Copy CRC 34B7CBBD
Accurately ripped (confidence 2) [86E94177] (AR v2)
Copy OK
Track 32
Filename N:\Flac\XX-Trump\Minkus - Don Quijote (Sofia National)\Disc 1\32 - Szene.wav
Pre-gap length 0:00:00.65
Peak level 77.0 %
Extraction speed 2.2 X
Track quality 100.0 %
Test CRC A8475D9D
Copy CRC A8475D9D
Accurately ripped (confidence 2) [24EC8FB6] (AR v2)
Copy OK
Track 33
Filename N:\Flac\XX-Trump\Minkus - Don Quijote (Sofia National)\Disc 1\33 - Coda.wav
Peak level 97.9 %
Extraction speed 1.7 X
Track quality 100.0 %
Test CRC C74E7049
Copy CRC C74E7049
Accurately ripped (confidence 2) [8D57814A] (AR v2)
Copy OK
All tracks accurately ripped
No errors occurred
End of status report
---- CUETools DB Plugin V2.1.4
[CTDB TOCID: MoZSuIDAe8O2pltlG5_N8iSA.5o-] found
Submit result: already submitted
Track | CTDB Status
1 | (1/1) Accurately ripped
2 | (1/1) Accurately ripped
3 | (1/1) Accurately ripped
4 | (1/1) Accurately ripped
5 | (1/1) Accurately ripped
6 | (1/1) Accurately ripped
7 | (1/1) Accurately ripped
8 | (1/1) Accurately ripped
9 | (1/1) Accurately ripped
10 | (1/1) Accurately ripped
11 | (1/1) Accurately ripped
12 | (1/1) Accurately ripped
13 | (1/1) Accurately ripped
14 | (1/1) Accurately ripped
15 | (1/1) Accurately ripped
16 | (1/1) Accurately ripped
17 | (1/1) Accurately ripped
18 | (1/1) Accurately ripped
19 | (1/1) Accurately ripped
20 | (1/1) Accurately ripped
21 | (1/1) Accurately ripped
22 | (1/1) Accurately ripped
23 | (1/1) Accurately ripped
24 | (1/1) Accurately ripped
25 | (1/1) Accurately ripped
26 | (1/1) Accurately ripped
27 | (1/1) Accurately ripped
28 | (1/1) Accurately ripped
29 | (1/1) Accurately ripped
30 | (1/1) Accurately ripped
31 | (1/1) Accurately ripped
32 | (1/1) Accurately ripped
33 | (1/1) Accurately ripped
==== Log checksum 83031B5D5BB6ABB6EDF69ADF985FA5CE3E4C8EE669B93CA4EB416A8C22AAE5A8 ====

CD2

Exact Audio Copy V1.0 beta 4 from 7. December 2014
EAC extraction logfile from 4. March 2015, 14:01
Léon Minkus (Sofia National Opera Orchestra - Boris Spassov) / Don Quijote Disc 2
Used drive : HL-DT-STDVDRAM GH22NS90 Adapter: 1 ID: 0
Read mode : Secure
Utilize accurate stream : Yes
Defeat audio cache : Yes
Make use of C2 pointers : No
Read offset correction : 6
Overread into Lead-In and Lead-Out : No
Fill up missing offset samples with silence : Yes
Delete leading and trailing silent blocks : No
Null samples used in CRC calculations : Yes
Used interface : Native Win32 interface for Win NT & 2000
Gap handling : Appended to previous track
Used output format : User Defined Encoder
Selected bitrate : 1024 kBit/s
Quality : High
Add ID3 tag : No
Command line compressor : C:\Program Files (x86)\Exact Audio Copy Flac\Flac\flac.exe
Additional command line options : -8 -V -T "ARTIST=%artist%" -T "TITLE=%title%" -T "ALBUM=%albumtitle%" -T "DATE=%year%" -T "TRACKNUMBER=%tracknr%" -T "GENRE=%genre%" -T "PERFORMER=%albuminterpret%" -T "COMPOSER=%composer%" %haslyrics%--tag-from-file=LYRICS="%lyricsfile%"%haslyrics% -T "ALBUMARTIST=%albumartist%" -T "DISCNUMBER=%cdnumber%" -T "TOTALDISCS=%totalcds%" -T "TOTALTRACKS=%numtracks%" -T "COMMENT=%comment%" %source% -o %dest%
TOC of the extracted CD
Track | Start | Length | Start sector | End sector
---------------------------------------------------------
1 | 0:00.37 | 1:57.10 | 37 | 8821
2 | 1:57.47 | 3:42.03 | 8822 | 25474
3 | 5:39.50 | 3:47.62 | 25475 | 42561
4 | 9:27.37 | 2:23.08 | 42562 | 53294
5 | 11:50.45 | 2:31.40 | 53295 | 64659
6 | 14:22.10 | 2:21.05 | 64660 | 75239
7 | 16:43.15 | 1:48.67 | 75240 | 83406
8 | 18:32.07 | 1:55.43 | 83407 | 92074
9 | 20:27.50 | 0:57.00 | 92075 | 96349
10 | 21:24.50 | 1:48.17 | 96350 | 104466
11 | 23:12.67 | 3:19.45 | 104467 | 119436
12 | 26:32.37 | 4:01.13 | 119437 | 137524
13 | 30:33.50 | 2:14.30 | 137525 | 147604
14 | 32:48.05 | 2:56.42 | 147605 | 160846
15 | 35:44.47 | 1:59.10 | 160847 | 169781
16 | 37:43.57 | 0:57.55 | 169782 | 174111
17 | 38:41.37 | 1:56.10 | 174112 | 182821
18 | 40:37.47 | 3:46.08 | 182822 | 199779
19 | 44:23.55 | 0:56.02 | 199780 | 203981
20 | 45:19.57 | 1:18.03 | 203982 | 209834
21 | 46:37.60 | 0:57.70 | 209835 | 214179
22 | 47:35.55 | 1:36.05 | 214180 | 221384
23 | 49:11.60 | 3:48.42 | 221385 | 238526
Track 1
Filename N:\Flac\XX-Trump\Minkus - Don Quijote (Sofia National)\Disc 2\01 - Zigeuner-Tanz I.wav
Pre-gap length 0:00:02.37
Peak level 90.2 %
Extraction speed 1.8 X
Track quality 100.0 %
Test CRC 471308FF
Copy CRC 471308FF
Accurately ripped (confidence 3) [DC0B044A] (AR v2)
Copy OK
Track 2
Filename N:\Flac\XX-Trump\Minkus - Don Quijote (Sofia National)\Disc 2\02 - Zigeuner-Tanz II.wav
Pre-gap length 0:00:01.68
Peak level 85.4 %
Extraction speed 2.1 X
Track quality 100.0 %
Test CRC 14ADCCCA
Copy CRC 14ADCCCA
Accurately ripped (confidence 3) [73675EB4] (AR v2)
Copy OK
Track 3
Filename N:\Flac\XX-Trump\Minkus - Don Quijote (Sofia National)\Disc 2\03 - Marionetten-Theater- Aufführungsszene, Don Quijotes Wahnsinn.wav
Pre-gap length 0:00:01.02
Peak level 70.6 %
Extraction speed 2.1 X
Track quality 100.0 %
Test CRC 840A9278
Copy CRC 840A9278
Accurately ripped (confidence 3) [7981DA78] (AR v2)
Copy OK
Track 4
Filename N:\Flac\XX-Trump\Minkus - Don Quijote (Sofia National)\Disc 2\04 - Waldszene.wav
Pre-gap length 0:00:07.52
Peak level 72.9 %
Extraction speed 1.1 X
Track quality 99.9 %
Test CRC 07BAA5A0
Copy CRC 07BAA5A0
Accurately ripped (confidence 3) [076858EA] (AR v2)
Copy OK
Track 5
Filename N:\Flac\XX-Trump\Minkus - Don Quijote (Sofia National)\Disc 2\05 - Don Quijotes Traum.wav
Peak level 33.9 %
Extraction speed 2.0 X
Track quality 100.0 %
Test CRC DDE6C8A1
Copy CRC DDE6C8A1
Accurately ripped (confidence 3) [14956287] (AR v2)
Copy OK
Track 6
Filename N:\Flac\XX-Trump\Minkus - Don Quijote (Sofia National)\Disc 2\06 - Allegretto.wav
Peak level 47.7 %
Extraction speed 1.1 X
Track quality 99.9 %
Test CRC 7DE4514B
Copy CRC 7DE4514B
Accurately ripped (confidence 3) [D69666CA] (AR v2)
Copy OK
Track 7
Filename N:\Flac\XX-Trump\Minkus - Don Quijote (Sofia National)\Disc 2\07 - Variation- Dryad's Frauen.wav
Peak level 63.7 %
Extraction speed 1.0 X
Track quality 99.9 %
Test CRC FB93A6AB
Copy CRC FB93A6AB
Accurately ripped (confidence 3) [9E93C0DC] (AR v2)
Copy OK
Track 8
Filename N:\Flac\XX-Trump\Minkus - Don Quijote (Sofia National)\Disc 2\08 - Variation- Dryad's Frauen ('souvenir Du Ball').wav
Pre-gap length 0:00:01.45
Peak level 36.1 %
Extraction speed 1.8 X
Track quality 100.0 %
Test CRC E472B229
Copy CRC E472B229
Accurately ripped (confidence 3) [13A49009] (AR v2)
Copy OK
Track 9
Filename N:\Flac\XX-Trump\Minkus - Don Quijote (Sofia National)\Disc 2\09 - Amour.wav
Pre-gap length 0:00:01.03
Peak level 31.1 %
Extraction speed 1.4 X
Track quality 100.0 %
Test CRC 507711B5
Copy CRC 507711B5
Accurately ripped (confidence 3) [BD790CAD] (AR v2)
Copy OK
Track 10
Filename N:\Flac\XX-Trump\Minkus - Don Quijote (Sofia National)\Disc 2\10 - Variation- Dulcinea (Kitri).wav
Pre-gap length 0:00:01.41
Peak level 69.7 %
Extraction speed 1.0 X
Track quality 99.9 %
Test CRC 5E2A73C2
Copy CRC 5E2A73C2
Accurately ripped (confidence 3) [5FC2CC9C] (AR v2)
Copy OK
Track 11
Filename N:\Flac\XX-Trump\Minkus - Don Quijote (Sofia National)\Disc 2\11 - Coda.wav
Pre-gap length 0:00:02.45
Peak level 84.8 %
Extraction speed 2.0 X
Track quality 100.0 %
Test CRC 637A1520
Copy CRC 637A1520
Accurately ripped (confidence 3) [19C83D7A] (AR v2)
Copy OK
Track 12
Filename N:\Flac\XX-Trump\Minkus - Don Quijote (Sofia National)\Disc 2\12 - Marsch.wav
Pre-gap length 0:00:07.00
Peak level 76.5 %
Extraction speed 2.1 X
Track quality 100.0 %
Test CRC E5FE918A
Copy CRC E5FE918A
Accurately ripped (confidence 3) [A11CCE71] (AR v2)
Copy OK
Track 13
Filename N:\Flac\XX-Trump\Minkus - Don Quijote (Sofia National)\Disc 2\13 - Szene.wav
Pre-gap length 0:00:00.68
Peak level 55.1 %
Extraction speed 1.8 X
Track quality 100.0 %
Test CRC 9C4FC2D0
Copy CRC 9C4FC2D0
Accurately ripped (confidence 3) [1617DD5A] (AR v2)
Copy OK
Track 14
Filename N:\Flac\XX-Trump\Minkus - Don Quijote (Sofia National)\Disc 2\14 - Amour.wav
Peak level 61.1 %
Extraction speed 2.0 X
Track quality 100.0 %
Test CRC C5690C5F
Copy CRC C5690C5F
Accurately ripped (confidence 3) [3409FAFF] (AR v2)
Copy OK
Track 15
Filename N:\Flac\XX-Trump\Minkus - Don Quijote (Sofia National)\Disc 2\15 - Klassische Variation I.wav
Pre-gap length 0:00:02.22
Peak level 53.6 %
Extraction speed 1.8 X
Track quality 100.0 %
Test CRC 43EBDC65
Copy CRC 43EBDC65
Accurately ripped (confidence 3) [760C3B1F] (AR v2)
Copy OK
Track 16
Filename N:\Flac\XX-Trump\Minkus - Don Quijote (Sofia National)\Disc 2\16 - Klassische Variation II.wav
Pre-gap length 0:00:00.46
Peak level 66.2 %
Extraction speed 0.6 X
Track quality 99.8 %
Test CRC 66136141
Copy CRC 66136141
Accurately ripped (confidence 3) [D5A3CD84] (AR v2)
Copy OK
Track 17
Filename N:\Flac\XX-Trump\Minkus - Don Quijote (Sofia National)\Disc 2\17 - Entrée.wav
Pre-gap length 0:00:01.44
Peak level 59.8 %
Extraction speed 1.8 X
Track quality 100.0 %
Test CRC 2CA0836E
Copy CRC 2CA0836E
Accurately ripped (confidence 3) [73C1EEC1] (AR v2)
Copy OK
Track 18
Filename N:\Flac\XX-Trump\Minkus - Don Quijote (Sofia National)\Disc 2\18 - Adagio.wav
Peak level 100.0 %
Extraction speed 1.4 X
Track quality 99.9 %
Test CRC B8DE83AB
Copy CRC B8DE83AB
Accurately ripped (confidence 3) [F72B09A0] (AR v2)
Copy OK
Track 19
Filename N:\Flac\XX-Trump\Minkus - Don Quijote (Sofia National)\Disc 2\19 - Variation- Basilio.wav
Pre-gap length 0:00:01.23
Peak level 91.1 %
Extraction speed 1.4 X
Track quality 100.0 %
Test CRC E75BE414
Copy CRC E75BE414
Accurately ripped (confidence 3) [C9852142] (AR v2)
Copy OK
Track 20
Filename N:\Flac\XX-Trump\Minkus - Don Quijote (Sofia National)\Disc 2\20 - Variation- Kitri.wav
Pre-gap length 0:00:00.68
Peak level 65.4 %
Extraction speed 0.8 X
Track quality 99.8 %
Test CRC 87B51C00
Copy CRC 87B51C00
Accurately ripped (confidence 3) [FDF0929C] (AR v2)
Copy OK
Track 21
Filename N:\Flac\XX-Trump\Minkus - Don Quijote (Sofia National)\Disc 2\21 - Variation- Kitri (Version Of No. 9).wav
Pre-gap length 0:00:01.10
Peak level 73.1 %
Extraction speed 1.5 X
Track quality 100.0 %
Test CRC 3D7EED30
Copy CRC 3D7EED30
Accurately ripped (confidence 3) [88BEDFBD] (AR v2)
Copy OK
Track 22
Filename N:\Flac\XX-Trump\Minkus - Don Quijote (Sofia National)\Disc 2\22 - Coda.wav
Peak level 100.0 %
Extraction speed 1.7 X
Track quality 100.0 %
Test CRC 6D957592
Copy CRC 6D957592
Accurately ripped (confidence 3) [54DBBEF0] (AR v2)
Copy OK
Track 23
Filename N:\Flac\XX-Trump\Minkus - Don Quijote (Sofia National)\Disc 2\23 - Finale- Spanischer Tanz.wav
Pre-gap length 0:00:02.05
Peak level 100.0 %
Extraction speed 2.1 X
Track quality 100.0 %
Test CRC 7B269BCE
Copy CRC 7B269BCE
Accurately ripped (confidence 3) [A765866A] (AR v2)
Copy OK
All tracks accurately ripped
No errors occurred
End of status report
---- CUETools DB Plugin V2.1.4
[CTDB TOCID: MGdqv5c1JdSSClJT.8KXLHj16v8-] found
Submit result: already submitted
Track | CTDB Status
1 | (1/1) Accurately ripped
2 | (1/1) Accurately ripped
3 | (1/1) Accurately ripped
4 | (1/1) Accurately ripped
5 | (1/1) Accurately ripped
6 | (1/1) Accurately ripped
7 | (1/1) Accurately ripped
8 | (1/1) Accurately ripped
9 | (1/1) Accurately ripped
10 | (1/1) Accurately ripped
11 | (1/1) Accurately ripped
12 | (1/1) Accurately ripped
13 | (1/1) Accurately ripped
14 | (1/1) Accurately ripped
15 | (1/1) Accurately ripped
16 | (1/1) Accurately ripped
17 | (1/1) Accurately ripped
18 | (1/1) Accurately ripped
19 | (1/1) Accurately ripped
20 | (1/1) Accurately ripped
21 | (1/1) Accurately ripped
22 | (1/1) Accurately ripped
23 | (1/1) Accurately ripped
==== Log checksum 584EE6102B9FDC15A4EAEA36244EAACDE6C32D7B5A82BC3EEF37900BD8F79990 ====

Содержание индексной карты (.CUE)CD1

REM GENRE Classical
REM DATE 1995
REM DISCID 0F118B21
REM COMMENT "ExactAudioCopy v1.0b4"
CATALOG 4006408105404
PERFORMER "Lйon Minkus (Sofia National Opera Orchestra - Boris Spassov)"
TITLE "Don Quijote Disc 1"
FILE "01 - Ouvertьre.wav" WAVE
TRACK 01 AUDIO
TITLE "Ouvertьre"
PERFORMER "Lйon Minkus (Sofia National Opera Orchestra - Boris Spassov)"
PREGAP 00:00:37
INDEX 01 00:00:00
TRACK 02 AUDIO
TITLE "Allegro"
PERFORMER "Lйon Minkus (Sofia National Opera Orchestra - Boris Spassov)"
INDEX 00 03:51:65
FILE "02 - Allegro.wav" WAVE
INDEX 01 00:00:00
FILE "03 - Auftritt.wav" WAVE
TRACK 03 AUDIO
TITLE "Auftritt"
PERFORMER "Lйon Minkus (Sofia National Opera Orchestra - Boris Spassov)"
INDEX 01 00:00:00
FILE "04 - Allegro Assai.wav" WAVE
TRACK 04 AUDIO
TITLE "Allegro Assai"
PERFORMER "Lйon Minkus (Sofia National Opera Orchestra - Boris Spassov)"
INDEX 01 00:00:00
FILE "05 - Sancho Dankt Don Quijote Fьr Die Rettung.wav" WAVE
TRACK 05 AUDIO
TITLE "Sancho Dankt Don Quijote Fьr Die Rettung"
PERFORMER "Lйon Minkus (Sofia National Opera Orchestra - Boris Spassov)"
INDEX 01 00:00:00
TRACK 06 AUDIO
TITLE "Platz In Barcelona"
PERFORMER "Lйon Minkus (Sofia National Opera Orchestra - Boris Spassov)"
INDEX 00 04:04:08
FILE "06 - Platz In Barcelona.wav" WAVE
INDEX 01 00:00:00
FILE "07 - Auftritt Kitri.wav" WAVE
TRACK 07 AUDIO
TITLE "Auftritt Kitri"
PERFORMER "Lйon Minkus (Sofia National Opera Orchestra - Boris Spassov)"
INDEX 01 00:00:00
FILE "08 - Kitri Und Basilio.wav" WAVE
TRACK 08 AUDIO
TITLE "Kitri Und Basilio"
PERFORMER "Lйon Minkus (Sofia National Opera Orchestra - Boris Spassov)"
INDEX 01 00:00:00
FILE "09 - Moreno-Tanz.wav" WAVE
TRACK 09 AUDIO
TITLE "Moreno-Tanz"
PERFORMER "Lйon Minkus (Sofia National Opera Orchestra - Boris Spassov)"
INDEX 01 00:00:00
FILE "10 - Szene- Lorenzo, Kitri Und Basilio.wav" WAVE
TRACK 10 AUDIO
TITLE "Szene: Lorenzo, Kitri Und Basilio"
PERFORMER "Lйon Minkus (Sofia National Opera Orchestra - Boris Spassov)"
INDEX 01 00:00:00
FILE "11 - Auftritt Gamasch.wav" WAVE
TRACK 11 AUDIO
TITLE "Auftritt Gamasch"
PERFORMER "Lйon Minkus (Sofia National Opera Orchestra - Boris Spassov)"
INDEX 01 00:00:00
FILE "12 - Seguidilla.wav" WAVE
TRACK 12 AUDIO
TITLE "Seguidilla"
PERFORMER "Lйon Minkus (Sofia National Opera Orchestra - Boris Spassov)"
INDEX 01 00:00:00
FILE "13 - StraЯentдnzer.wav" WAVE
TRACK 13 AUDIO
TITLE "StraЯentдnzer"
PERFORMER "Lйon Minkus (Sofia National Opera Orchestra - Boris Spassov)"
INDEX 01 00:00:00
FILE "14 - Tanz Von Espada.wav" WAVE
TRACK 14 AUDIO
TITLE "Tanz Von Espada"
PERFORMER "Lйon Minkus (Sofia National Opera Orchestra - Boris Spassov)"
INDEX 01 00:00:00
FILE "15 - Allegro- Torero-Szene.wav" WAVE
TRACK 15 AUDIO
TITLE "Allegro: Torero-Szene"
PERFORMER "Lйon Minkus (Sofia National Opera Orchestra - Boris Spassov)"
INDEX 01 00:00:00
FILE "16 - StraЯentдnzer.wav" WAVE
TRACK 16 AUDIO
TITLE "StraЯentдnzer"
PERFORMER "Lйon Minkus (Sofia National Opera Orchestra - Boris Spassov)"
INDEX 01 00:00:00
FILE "17 - Coda.wav" WAVE
TRACK 17 AUDIO
TITLE "Coda"
PERFORMER "Lйon Minkus (Sofia National Opera Orchestra - Boris Spassov)"
INDEX 01 00:00:00
FILE "18 - Presto Assai, Allegro Maestoso, Meno Mosso, Tempo Di Marcia.wav" WAVE
TRACK 18 AUDIO
TITLE "Presto Assai, Allegro Maestoso, Meno Mosso, Tempo Di Marcia"
PERFORMER "Lйon Minkus (Sofia National Opera Orchestra - Boris Spassov)"
INDEX 01 00:00:00
FILE "19 - Sancho Pansa Und Mдdchen.wav" WAVE
TRACK 19 AUDIO
TITLE "Sancho Pansa Und Mдdchen"
PERFORMER "Lйon Minkus (Sofia National Opera Orchestra - Boris Spassov)"
INDEX 01 00:00:00
FILE "20 - Kitris Freundinnen.wav" WAVE
TRACK 20 AUDIO
TITLE "Kitris Freundinnen"
PERFORMER "Lйon Minkus (Sofia National Opera Orchestra - Boris Spassov)"
INDEX 01 00:00:00
FILE "21 - Szene.wav" WAVE
TRACK 21 AUDIO
TITLE "Szene"
PERFORMER "Lйon Minkus (Sofia National Opera Orchestra - Boris Spassov)"
INDEX 01 00:00:00
TRACK 22 AUDIO
TITLE "Variation: Basilio Und Freundinnen"
PERFORMER "Lйon Minkus (Sofia National Opera Orchestra - Boris Spassov)"
INDEX 00 05:12:67
FILE "22 - Variation- Basilio Und Freundinnen.wav" WAVE
INDEX 01 00:00:00
TRACK 23 AUDIO
TITLE "Variation: Kitri"
PERFORMER "Lйon Minkus (Sofia National Opera Orchestra - Boris Spassov)"
INDEX 00 00:42:50
FILE "23 - Variation- Kitri.wav" WAVE
INDEX 01 00:00:00
TRACK 24 AUDIO
TITLE "Coda"
PERFORMER "Lйon Minkus (Sofia National Opera Orchestra - Boris Spassov)"
INDEX 00 00:47:40
FILE "24 - Coda.wav" WAVE
INDEX 01 00:00:00
TRACK 25 AUDIO
TITLE "Einleitung"
PERFORMER "Lйon Minkus (Sofia National Opera Orchestra - Boris Spassov)"
INDEX 00 02:58:45
FILE "25 - Einleitung.wav" WAVE
INDEX 01 00:00:00
FILE "26 - Auftritt Von Kitri Und Basilio.wav" WAVE
TRACK 26 AUDIO
TITLE "Auftritt Von Kitri Und Basilio"
PERFORMER "Lйon Minkus (Sofia National Opera Orchestra - Boris Spassov)"
INDEX 01 00:00:00
FILE "27 - Spanischer Tanz.wav" WAVE
TRACK 27 AUDIO
TITLE "Spanischer Tanz"
PERFORMER "Lйon Minkus (Sofia National Opera Orchestra - Boris Spassov)"
INDEX 01 00:00:00
FILE "28 - Spanischer Tanz Von Mercedes.wav" WAVE
TRACK 28 AUDIO
TITLE "Spanischer Tanz Von Mercedes"
PERFORMER "Lйon Minkus (Sofia National Opera Orchestra - Boris Spassov)"
INDEX 01 00:00:00
TRACK 29 AUDIO
TITLE "Karmencitta"
PERFORMER "Lйon Minkus (Sofia National Opera Orchestra - Boris Spassov)"
INDEX 00 02:11:55
FILE "29 - Karmencitta.wav" WAVE
INDEX 01 00:00:00
TRACK 30 AUDIO
TITLE "Solo A Gitana"
PERFORMER "Lйon Minkus (Sofia National Opera Orchestra - Boris Spassov)"
INDEX 00 03:52:30
FILE "30 - Solo A Gitana.wav" WAVE
INDEX 01 00:00:00
TRACK 31 AUDIO
TITLE "Tanz Der Matrosen"
PERFORMER "Lйon Minkus (Sofia National Opera Orchestra - Boris Spassov)"
INDEX 00 01:28:45
FILE "31 - Tanz Der Matrosen.wav" WAVE
INDEX 01 00:00:00
TRACK 32 AUDIO
TITLE "Szene"
PERFORMER "Lйon Minkus (Sofia National Opera Orchestra - Boris Spassov)"
INDEX 00 01:59:10
FILE "32 - Szene.wav" WAVE
INDEX 01 00:00:00
FILE "33 - Coda.wav" WAVE
TRACK 33 AUDIO
TITLE "Coda"
PERFORMER "Lйon Minkus (Sofia National Opera Orchestra - Boris Spassov)"
INDEX 01 00:00:00

CD2

REM GENRE Classical
REM DATE 1995
REM DISCID 530C6C17
REM COMMENT "ExactAudioCopy v1.0b4"
CATALOG 4006408105411
PERFORMER "Lйon Minkus (Sofia National Opera Orchestra - Boris Spassov)"
TITLE "Don Quijote Disc 2"
FILE "01 - Zigeuner-Tanz I.wav" WAVE
TRACK 01 AUDIO
TITLE "Zigeuner-Tanz I"
PERFORMER "Lйon Minkus (Sofia National Opera Orchestra - Boris Spassov)"
PREGAP 00:00:37
INDEX 01 00:00:00
TRACK 02 AUDIO
TITLE "Zigeuner-Tanz II"
PERFORMER "Lйon Minkus (Sofia National Opera Orchestra - Boris Spassov)"
INDEX 00 01:55:17
FILE "02 - Zigeuner-Tanz II.wav" WAVE
INDEX 01 00:00:00
TRACK 03 AUDIO
TITLE "Marionetten-Theater: Auffьhrungsszene, Don Quijotes Wahnsinn"
PERFORMER "Lйon Minkus (Sofia National Opera Orchestra - Boris Spassov)"
INDEX 00 03:41:01
FILE "03 - Marionetten-Theater- Auffьhrungsszene, Don Quijotes Wahnsinn.wav" WAVE
INDEX 01 00:00:00
TRACK 04 AUDIO
TITLE "Waldszene"
PERFORMER "Lйon Minkus (Sofia National Opera Orchestra - Boris Spassov)"
INDEX 00 03:40:10
FILE "04 - Waldszene.wav" WAVE
INDEX 01 00:00:00
FILE "05 - Don Quijotes Traum.wav" WAVE
TRACK 05 AUDIO
TITLE "Don Quijotes Traum"
PERFORMER "Lйon Minkus (Sofia National Opera Orchestra - Boris Spassov)"
INDEX 01 00:00:00
FILE "06 - Allegretto.wav" WAVE
TRACK 06 AUDIO
TITLE "Allegretto"
PERFORMER "Lйon Minkus (Sofia National Opera Orchestra - Boris Spassov)"
INDEX 01 00:00:00
FILE "07 - Variation- Dryad's Frauen.wav" WAVE
TRACK 07 AUDIO
TITLE "Variation: Dryad's Frauen"
PERFORMER "Lйon Minkus (Sofia National Opera Orchestra - Boris Spassov)"
INDEX 01 00:00:00
TRACK 08 AUDIO
TITLE "Variation: Dryad's Frauen ('souvenir Du Ball')"
PERFORMER "Lйon Minkus (Sofia National Opera Orchestra - Boris Spassov)"
INDEX 00 01:47:22
FILE "08 - Variation- Dryad's Frauen ('souvenir Du Ball').wav" WAVE
INDEX 01 00:00:00
TRACK 09 AUDIO
TITLE "Amour"
PERFORMER "Lйon Minkus (Sofia National Opera Orchestra - Boris Spassov)"
INDEX 00 01:54:40
FILE "09 - Amour.wav" WAVE
INDEX 01 00:00:00
TRACK 10 AUDIO
TITLE "Variation: Dulcinea (Kitri)"
PERFORMER "Lйon Minkus (Sofia National Opera Orchestra - Boris Spassov)"
INDEX 00 00:55:34
FILE "10 - Variation- Dulcinea (Kitri).wav" WAVE
INDEX 01 00:00:00
TRACK 11 AUDIO
TITLE "Coda"
PERFORMER "Lйon Minkus (Sofia National Opera Orchestra - Boris Spassov)"
INDEX 00 01:45:47
FILE "11 - Coda.wav" WAVE
INDEX 01 00:00:00
TRACK 12 AUDIO
TITLE "Marsch"
PERFORMER "Lйon Minkus (Sofia National Opera Orchestra - Boris Spassov)"
INDEX 00 03:12:45
FILE "12 - Marsch.wav" WAVE
INDEX 01 00:00:00
TRACK 13 AUDIO
TITLE "Szene"
PERFORMER "Lйon Minkus (Sofia National Opera Orchestra - Boris Spassov)"
INDEX 00 04:00:20
FILE "13 - Szene.wav" WAVE
INDEX 01 00:00:00
FILE "14 - Amour.wav" WAVE
TRACK 14 AUDIO
TITLE "Amour"
PERFORMER "Lйon Minkus (Sofia National Opera Orchestra - Boris Spassov)"
INDEX 01 00:00:00
TRACK 15 AUDIO
TITLE "Klassische Variation I"
PERFORMER "Lйon Minkus (Sofia National Opera Orchestra - Boris Spassov)"
INDEX 00 02:54:20
FILE "15 - Klassische Variation I.wav" WAVE
INDEX 01 00:00:00
TRACK 16 AUDIO
TITLE "Klassische Variation II"
PERFORMER "Lйon Minkus (Sofia National Opera Orchestra - Boris Spassov)"
INDEX 00 01:58:39
FILE "16 - Klassische Variation II.wav" WAVE
INDEX 01 00:00:00
TRACK 17 AUDIO
TITLE "Entrйe"
PERFORMER "Lйon Minkus (Sofia National Opera Orchestra - Boris Spassov)"
INDEX 00 00:56:11
FILE "17 - Entrйe.wav" WAVE
INDEX 01 00:00:00
FILE "18 - Adagio.wav" WAVE
TRACK 18 AUDIO
TITLE "Adagio"
PERFORMER "Lйon Minkus (Sofia National Opera Orchestra - Boris Spassov)"
INDEX 01 00:00:00
TRACK 19 AUDIO
TITLE "Variation: Basilio"
PERFORMER "Lйon Minkus (Sofia National Opera Orchestra - Boris Spassov)"
INDEX 00 03:44:60
FILE "19 - Variation- Basilio.wav" WAVE
INDEX 01 00:00:00
TRACK 20 AUDIO
TITLE "Variation: Kitri"
PERFORMER "Lйon Minkus (Sofia National Opera Orchestra - Boris Spassov)"
INDEX 00 00:55:09
FILE "20 - Variation- Kitri.wav" WAVE
INDEX 01 00:00:00
TRACK 21 AUDIO
TITLE "Variation: Kitri (Version Of No. 9)"
PERFORMER "Lйon Minkus (Sofia National Opera Orchestra - Boris Spassov)"
INDEX 00 01:16:68
FILE "21 - Variation- Kitri (Version Of No. 9).wav" WAVE
INDEX 01 00:00:00
FILE "22 - Coda.wav" WAVE
TRACK 22 AUDIO
TITLE "Coda"
PERFORMER "Lйon Minkus (Sofia National Opera Orchestra - Boris Spassov)"
INDEX 01 00:00:00
TRACK 23 AUDIO
TITLE "Finale: Spanischer Tanz"
PERFORMER "Lйon Minkus (Sofia National Opera Orchestra - Boris Spassov)"
INDEX 00 01:34:00
FILE "23 - Finale- Spanischer Tanz.wav" WAVE
INDEX 01 00:00:00



Показать сообщения:    

Текущее время: 06-Дек 22:46

Часовой пояс: UTC + 3


Вы не можете начинать темы
Вы не можете отвечать на сообщения
Вы не можете редактировать свои сообщения
Вы не можете удалять свои сообщения
Вы не можете голосовать в опросах
Вы не можете прикреплять файлы к сообщениям
Вы не можете скачивать файлы