(Classical Crossover) The Dark Tenor - Symphony Of Light (2 Editions) - 2014-2015, (3 CDs), FLAC (image+.cue) lossless


 

[Цитировать]


Symphony Of Light (2 Editions)
Количество релизов (альбомов / синглов / EP/ сборников): 2 Жанр: Classical Crossover
Страна-производитель диска: Germany Год издания диска: 2014-2015
Издатель (лейбл): Trick Or Treat Records/Polydor/Universal Music GmbH Страна: Germany
Аудиокодек: FLAC Тип рипа: image+.cue
Битрейт аудио: lossless Источник: CD
Наличие сканов в содержимом раздачи: да (склейка сканов: qazaqazaq666 - спасибо!)

2014: Symphony Of Light

Номер по каталогу: 00602537969043
Продолжительность: 53:12
Треклист:
01. The Beginning 01:21
02. Heart Of Gold 03:06
03. River Flows On The Edge (feat. Yiruma) 03:45
04. Love Is Light 03:01
05. River Of Life 04:08
06. Haunted Hearts 04:27
07. Miserere 06:15
08. The Hunger 04:08
09. Ode An Die Freude 03:40
10. Like A Hero 03:26
11. After The Nightmare 03:46
12. A Stranger Like You 04:57
13. Lascia Ch'io Pianga (Duett with Angelzoom) 04:21
14. Tag Des Zorns (Lakme - Dies Irae) 02:51

Лог создания рипа

Exact Audio Copy V1.1 from 23. June 2015
EAC extraction logfile from 25. December 2015, 18:42
The Dark Tenor / Symphony Of Light
Used drive : HP DVD Writer 1170d Adapter: 1 ID: 1
Read mode : Secure
Utilize accurate stream : Yes
Defeat audio cache : Yes
Make use of C2 pointers : No
Read offset correction : 6
Overread into Lead-In and Lead-Out : No
Fill up missing offset samples with silence : Yes
Delete leading and trailing silent blocks : No
Null samples used in CRC calculations : Yes
Used interface : Native Win32 interface for Win NT & 2000
Used output format : User Defined Encoder
Selected bitrate : 1024 kBit/s
Quality : Low
Add ID3 tag : No
Command line compressor : C:\Program Files (x86)\Exact Audio Copy\FLAC\FLAC.EXE
Additional command line options : -V -8 -T "Date=%year%" -T "Genre=%genre%" -T"COMMENT=Ripped by Ungern666" -8 -V %source%
TOC of the extracted CD
Track | Start | Length | Start sector | End sector
---------------------------------------------------------
1 | 0:00.00 | 1:20.68 | 0 | 6067
2 | 1:20.68 | 3:06.02 | 6068 | 20019
3 | 4:26.70 | 3:45.21 | 20020 | 36915
4 | 8:12.16 | 3:01.18 | 36916 | 50508
5 | 11:13.34 | 4:07.74 | 50509 | 69107
6 | 15:21.33 | 4:26.55 | 69108 | 89112
7 | 19:48.13 | 6:15.33 | 89113 | 117270
8 | 26:03.46 | 4:07.40 | 117271 | 135835
9 | 30:11.11 | 3:39.63 | 135836 | 152323
10 | 33:50.74 | 3:25.73 | 152324 | 167771
11 | 37:16.72 | 3:46.09 | 167772 | 184730
12 | 41:03.06 | 4:57.00 | 184731 | 207005
13 | 46:00.06 | 4:21.15 | 207006 | 226595
14 | 50:21.21 | 2:50.74 | 226596 | 239419
Range status and errors
Selected range
Filename C:\EAC\Ungern666\The Dark Tenor - Symphony Of Light.wav
Peak level 98.8 %
Extraction speed 5.7 X
Range quality 100.0 %
Test CRC 416B361D
Copy CRC 416B361D
Copy OK
No errors occurred
AccurateRip summary
Track 1 accurately ripped (confidence 11) [4BEE0555] (AR v2)
Track 2 accurately ripped (confidence 11) [1923130C] (AR v2)
Track 3 accurately ripped (confidence 11) [AA37B571] (AR v2)
Track 4 accurately ripped (confidence 11) [D7BB1F32] (AR v2)
Track 5 accurately ripped (confidence 11) [6A2FF4D6] (AR v2)
Track 6 accurately ripped (confidence 11) [4A9697F4] (AR v2)
Track 7 accurately ripped (confidence 11) [2214A274] (AR v2)
Track 8 accurately ripped (confidence 11) [80832CD2] (AR v2)
Track 9 accurately ripped (confidence 11) [9408A0B7] (AR v2)
Track 10 accurately ripped (confidence 10) [E77335FE] (AR v2)
Track 11 accurately ripped (confidence 11) [D800F424] (AR v2)
Track 12 accurately ripped (confidence 11) [A7B9E7B5] (AR v2)
Track 13 accurately ripped (confidence 11) [DF4CC405] (AR v2)
Track 14 accurately ripped (confidence 11) [3E135A96] (AR v2)
All tracks accurately ripped
End of status report
---- CUETools DB Plugin V2.1.6
[CTDB TOCID: 5YTst57f3gGUYZn0k_tI8zQcuKA-] found
Submit result: 5YTst57f3gGUYZn0k_tI8zQcuKA- has been confirmed
Track | CTDB Status
1 | (62/62) Accurately ripped
2 | (62/62) Accurately ripped
3 | (62/62) Accurately ripped
4 | (62/62) Accurately ripped
5 | (62/62) Accurately ripped
6 | (62/62) Accurately ripped
7 | (62/62) Accurately ripped
8 | (62/62) Accurately ripped
9 | (62/62) Accurately ripped
10 | (62/62) Accurately ripped
11 | (62/62) Accurately ripped
12 | (62/62) Accurately ripped
13 | (62/62) Accurately ripped
14 | (62/62) Accurately ripped
==== Log checksum 3F544A9C064A47D5BADA4EB6E3B119A766AE9488C949AD7980B6FCF183096215 ====

2015: Symphony Of Light (Second Edition & Classical Masterpieces)

Номер по каталогу: 00028948239153
Продолжительность: 78:57/80:10

CD 1 - Second Edition

Треклист:
01. The Beginning 01:21
02. Heart Of Gold 03:06
03. River Flows On The Edge (Special Guest: Yiruma) 03:45
04. Love Is Light 03:01
05. River Of Life (Special Guest: Tina Volk-Violin) 04:08
06. Haunted Hearts 04:27
07. Save You 04:41
08. Miserere (Special Guest: Dresdner Kreuzchor - Choir) 06:15
09. The Hunger (Special Guest: Esther Puzak- Soprano) 04:08
10. Cystal World 03:31
11. Ode An Die Freude 03:40
12. Like A Hero 03:26
13. After The Nightmare 03:46
14. A Stranger Like You (Special Guest: Benjamin Richter) 04:57
15. Lascia Ch'io Pianga (Special Guest: Angelzoom) 04:21
16. Love And Loss (Special Guest: Tina Volk-Violin) 04:08
16. Tag Des Zorns 02:51
Christmas Bonus-Tracks
18. Maria Durch Ein Dornwald Ging 03:01
19. Pie Jesu Libera Me 03:25
20. Stille Nacht 02:29
21. The Power Of Love 04:24

Лог создания рипа

Exact Audio Copy V1.1 from 23. June 2015
EAC extraction logfile from 21. February 2016, 12:15
The Dark Tenor / Symphony Of Light (Second Edition) CD 1
Used drive : HP DVD Writer 1170d Adapter: 1 ID: 1
Read mode : Secure
Utilize accurate stream : Yes
Defeat audio cache : Yes
Make use of C2 pointers : No
Read offset correction : 6
Overread into Lead-In and Lead-Out : No
Fill up missing offset samples with silence : Yes
Delete leading and trailing silent blocks : No
Null samples used in CRC calculations : Yes
Used interface : Native Win32 interface for Win NT & 2000
Used output format : User Defined Encoder
Selected bitrate : 1024 kBit/s
Quality : Low
Add ID3 tag : No
Command line compressor : C:\Program Files (x86)\Exact Audio Copy\FLAC\FLAC.EXE
Additional command line options : -V -8 -T "Date=%year%" -T "Genre=%genre%" -T"COMMENT=Ripped by Ungern666" -8 -V %source%
TOC of the extracted CD
Track | Start | Length | Start sector | End sector
---------------------------------------------------------
1 | 0:00.00 | 1:20.68 | 0 | 6067
2 | 1:20.68 | 3:06.07 | 6068 | 20024
3 | 4:27.00 | 3:45.16 | 20025 | 36915
4 | 8:12.16 | 3:01.18 | 36916 | 50508
5 | 11:13.34 | 4:07.74 | 50509 | 69107
6 | 15:21.33 | 4:25.39 | 69108 | 89021
7 | 19:46.72 | 4:40.61 | 89022 | 110082
8 | 24:27.58 | 6:15.33 | 110083 | 138240
9 | 30:43.16 | 4:07.65 | 138241 | 156830
10 | 34:51.06 | 3:30.44 | 156831 | 172624
11 | 38:21.50 | 3:39.63 | 172625 | 189112
12 | 42:01.38 | 3:25.73 | 189113 | 204560
13 | 45:27.36 | 3:46.09 | 204561 | 221519
14 | 49:13.45 | 4:57.00 | 221520 | 243794
15 | 54:10.45 | 4:20.31 | 243795 | 263325
16 | 58:31.01 | 4:08.13 | 263326 | 281938
17 | 62:39.14 | 2:59.00 | 281939 | 295363
18 | 65:38.14 | 3:01.19 | 295364 | 308957
19 | 68:39.33 | 3:25.06 | 308958 | 324338
20 | 72:04.39 | 2:29.18 | 324339 | 335531
21 | 74:33.57 | 4:23.44 | 335532 | 355300
Range status and errors
Selected range
Filename C:\EAC\Ungern666\The Dark Tenor - Symphony Of Light (Second Edition) CD 1.wav
Peak level 98.8 %
Extraction speed 8.3 X
Range quality 100.0 %
Test CRC C5E3008D
Copy CRC C5E3008D
Copy OK
No errors occurred
AccurateRip summary
Track 1 not present in database
Track 2 not present in database
Track 3 not present in database
Track 4 not present in database
Track 5 not present in database
Track 6 not present in database
Track 7 not present in database
Track 8 not present in database
Track 9 not present in database
Track 10 not present in database
Track 11 not present in database
Track 12 not present in database
Track 13 not present in database
Track 14 not present in database
Track 15 not present in database
Track 16 not present in database
Track 17 not present in database
Track 18 not present in database
Track 19 not present in database
Track 20 not present in database
Track 21 not present in database
None of the tracks are present in the AccurateRip database
End of status report
---- CUETools DB Plugin V2.1.6
[CTDB TOCID: c17.d6EIxuV_3RPDf0Pp80Tb3GA-] found
Submit result: c17.d6EIxuV_3RPDf0Pp80Tb3GA- has been confirmed
Track | CTDB Status
1 | (9/9) Accurately ripped
2 | (9/9) Accurately ripped
3 | (9/9) Accurately ripped
4 | (9/9) Accurately ripped
5 | (9/9) Accurately ripped
6 | (9/9) Accurately ripped
7 | (9/9) Accurately ripped
8 | (9/9) Accurately ripped
9 | (9/9) Accurately ripped
10 | (9/9) Accurately ripped
11 | (9/9) Accurately ripped
12 | (9/9) Accurately ripped
13 | (9/9) Accurately ripped
14 | (9/9) Accurately ripped
15 | (9/9) Accurately ripped
16 | (9/9) Accurately ripped
17 | (9/9) Accurately ripped
18 | (9/9) Accurately ripped
19 | (9/9) Accurately ripped
20 | (9/9) Accurately ripped
21 | (9/9) Accurately ripped
==== Log checksum 7542B8F8E5C213345BDFA34450B99D0530057E8098DEECC43630FFC6207FF4D0 ====

CD 2 - Classical Masterpieces

Треклист:
01. 5th Symphony - 1. Allegro Con Brio (Beethoven) 08:34
02. Symphony No. 40 In G Minor - 1. Molto Allegro (Mozart) 08:55
03. The Moldau (Smetana) 11:54
04. Aquarium (Carnival Of The Animals) (Saint-Saëns) 02:09
05. 2nd Rex Tremendae (Messa Da Requiem) (Verdi) 04:05
06. Miserere (Allegri) 11:47
07. Magic Flute - Konigin Der Nacht (Mozart) 02:58
08. Magic Flute - Ein Madchen Oder Weibchen (Papageno) (Mozart) 03:57
09. Symphony No. 9 - Ode To Joy (Beethoven) 12:33
10. Swan Lake - Suite (Tchaikovsky) 03:05
11. Sicilienne (Faure) 04:05
12. 3rd Sequencia - Dies Irae (Requiem In D Minor) (Mozart) 02:03
13. Pie Jesu (Faure) 04:06

Лог создания рипа

Exact Audio Copy V1.1 from 23. June 2015
EAC extraction logfile from 21. February 2016, 12:55
The Dark Tenor / Symphony Of Light (Second Edition) CD 2
Used drive : HP DVD Writer 1170d Adapter: 1 ID: 1
Read mode : Secure
Utilize accurate stream : Yes
Defeat audio cache : Yes
Make use of C2 pointers : No
Read offset correction : 6
Overread into Lead-In and Lead-Out : No
Fill up missing offset samples with silence : Yes
Delete leading and trailing silent blocks : No
Null samples used in CRC calculations : Yes
Used interface : Native Win32 interface for Win NT & 2000
Used output format : User Defined Encoder
Selected bitrate : 1024 kBit/s
Quality : Low
Add ID3 tag : No
Command line compressor : C:\Program Files (x86)\Exact Audio Copy\FLAC\FLAC.EXE
Additional command line options : -V -8 -T "Date=%year%" -T "Genre=%genre%" -T"COMMENT=Ripped by Ungern666" -8 -V %source%
TOC of the extracted CD
Track | Start | Length | Start sector | End sector
---------------------------------------------------------
1 | 0:00.00 | 8:34.18 | 0 | 38567
2 | 8:34.18 | 8:55.18 | 38568 | 78710
3 | 17:29.36 | 11:54.36 | 78711 | 132296
4 | 29:23.72 | 2:08.60 | 132297 | 141956
5 | 31:32.57 | 4:04.55 | 141957 | 160311
6 | 35:37.37 | 11:46.40 | 160312 | 213301
7 | 47:24.02 | 2:58.02 | 213302 | 226653
8 | 50:22.04 | 3:57.01 | 226654 | 244429
9 | 54:19.05 | 12:32.72 | 244430 | 300901
10 | 66:52.02 | 3:04.53 | 300902 | 314754
11 | 69:56.55 | 4:05.08 | 314755 | 333137
12 | 74:01.63 | 2:03.08 | 333138 | 342370
13 | 76:04.71 | 4:05.62 | 342371 | 360807
Range status and errors
Selected range
Filename C:\EAC\Ungern666\The Dark Tenor - Symphony Of Light (Second Edition) CD 2.wav
Peak level 98.6 %
Extraction speed 5.2 X
Range quality 100.0 %
Test CRC 5FFF2D8E
Copy CRC 5FFF2D8E
Copy OK
No errors occurred
AccurateRip summary
Track 1 not present in database
Track 2 not present in database
Track 3 not present in database
Track 4 not present in database
Track 5 not present in database
Track 6 not present in database
Track 7 not present in database
Track 8 not present in database
Track 9 not present in database
Track 10 not present in database
Track 11 not present in database
Track 12 not present in database
Track 13 not present in database
None of the tracks are present in the AccurateRip database
End of status report
---- CUETools DB Plugin V2.1.6
[CTDB TOCID: bU6wMPgz_9XfD8W9NOsoA2BSA0E-] found
Submit result: bU6wMPgz_9XfD8W9NOsoA2BSA0E- has been confirmed
Track | CTDB Status
1 | (8/8) Accurately ripped
2 | (8/8) Accurately ripped
3 | (8/8) Accurately ripped
4 | (8/8) Accurately ripped
5 | (8/8) Accurately ripped
6 | (8/8) Accurately ripped
7 | (8/8) Accurately ripped
8 | (8/8) Accurately ripped
9 | (8/8) Accurately ripped
10 | (8/8) Accurately ripped
11 | (7/8) Accurately ripped
12 | (8/8) Accurately ripped
13 | (8/8) Accurately ripped
==== Log checksum E2FEC50C70C1A4DD7B34B55FD26B133F71570F25566606BDB68E873279E1E6DC ====
Материал предназначен для ознакомления!



Показать сообщения:    

Текущее время: 03-Дек 16:44

Часовой пояс: UTC + 3


Вы не можете начинать темы
Вы не можете отвечать на сообщения
Вы не можете редактировать свои сообщения
Вы не можете удалять свои сообщения
Вы не можете голосовать в опросах
Вы не можете прикреплять файлы к сообщениям
Вы не можете скачивать файлы