Сорванцы / Шантрапа / Шпанята / Les mistons (Франсуа Трюффо / François Truffaut) [1957, Франция, драма, комедия, BDRip] MVO (СТС) + Sub Rus, Eng + Original Fre


Статистика раздачи [Обновить пиров]
Размер:  312 MB   |    Зарегистрирован:  8 месяцев 14 дней   |    Скачан:  1 раз

Полного источника не было: 3 месяца 5 дней

 
   
 
 
 

[Цитировать]

Сорванцы / Шантрапа / Шпанята / Les mistons
Страна: Франция
Жанр: драма, комедия
Год выпуска: 1957
Продолжительность: 00:18:04
Перевод: Профессиональный (многоголосый закадровый) - СТС
Cубтитры: русские, английские
Оригинальная аудиодорожка: французский

Режиссер: Франсуа Трюффо / François Truffaut
В ролях: Жерар Блен, Бернадетт Лафон, Мишель Франсуа, Ален Бальди, Роберт Бюль, Димитри Моретти
Описание: Один из самых первых фильмов великого французского режиссера Франсуа Трюффо, рассказывающий о пробуждающейся сексуальности нескольких подростков, проводящих лето на природе и целыми днями следящими за отношениями парочки влюбленных молодых людей.
Качество видео: BDRip
Формат видео: AVI
Видео: 656x480 (1.37:1), 24 fps, XviD build 73 ~1990 kbps avg, 0.26 bit/pixel
Аудио: 48 kHz, AC3 Dolby Digital, 2/0 (L,R) ch, ~192 kbps - многоголосый
Аудио: 48 kHz, AC3 Dolby Digital, 2/0 (L,R) ch, ~192 kbps - оригинал

MediaInfo

Общее
Полное имя : H:\Les.mistons.1957.bdrip_[teko]\Les.mistons.1957.bdrip.avi
Формат : AVI
Формат/Информация : Audio Video Interleave
Размер файла : 312 Мбайт
Продолжительность : 18 м.
Общий поток : 2389 Кбит/сек
Программа кодирования : VirtualDubMod 1.5.10.3 | www.virtualdub-fr.org || (build 2550/release)
Библиотека кодирования : VirtualDubMod build 2550/release
Видео
Идентификатор : 0
Формат : MPEG-4 Visual
Профиль формата : Advanced Simple@L5
Параметр BVOP формата : 2
Параметр QPel формата : Нет
Параметр GMC формата : Без точки перехода
Параметр матрицы формата : Выборочная
Идентификатор кодека : XVID
Идентификатор кодека/Подсказка : XviD
Продолжительность : 18 м.
Битрейт : 1991 Кбит/сек
Ширина : 656 пикселей
Высота : 480 пикселей
Соотношение сторон : 4:3
Частота кадров : 24,000 кадра/сек
Цветовое пространство : YUV
Субдискретизация насыщенности : 4:2:0
Битовая глубина : 8 бит
Тип развёртки : Прогрессивная
Метод сжатия : С потерями
Бит/(Пиксели*Кадры) : 0.263
Размер потока : 260 Мбайт (83%)
Библиотека кодирования : XviD 73
Аудио #1
Идентификатор : 1
Формат : AC-3
Формат/Информация : Audio Coding 3
Расширение режима : CM (complete main)
Параметр Endianness формата : Big
Идентификатор кодека : 2000
Продолжительность : 18 м.
Вид битрейта : Постоянный
Битрейт : 192 Кбит/сек
Каналы : 2 канала
Расположение каналов : Front: L R
Частота : 48,0 КГц
Битовая глубина : 16 бит
Метод сжатия : С потерями
Размер потока : 25,0 Мбайт (8%)
Выравнивание : Разделение по промежуткам
Продолжительность промежутка : 42 мс. (1,00 видеокадр)
Время предзагрузки промежутка : 500 мс.
Аудио #2
Идентификатор : 2
Формат : AC-3
Формат/Информация : Audio Coding 3
Расширение режима : CM (complete main)
Параметр Endianness формата : Big
Идентификатор кодека : 2000
Продолжительность : 18 м.
Вид битрейта : Постоянный
Битрейт : 192 Кбит/сек
Каналы : 2 канала
Расположение каналов : Front: L R
Частота : 48,0 КГц
Битовая глубина : 16 бит
Метод сжатия : С потерями
Размер потока : 25,0 Мбайт (8%)
Выравнивание : Разделение по промежуткам
Продолжительность промежутка : 42 мс. (1,00 видеокадр)
Время предзагрузки промежутка : 500 мс.
[teatrix.ru].t23080.torrent 
Торрент: Зарегистрирован [ 2016-03-21 00:33 ] · B83AC1B75CC9A02416C5C676388ECB99F4893BCD

Скачать .torrent

Скачать

13 KB

Статус: проверено
Скачан: 1 раз
Размер: 312 MB
terms.php



Быстрый ответ

Имя:

      
Для отправки сообщений необходимо включить JavaScript
Показать сообщения:    

Текущее время: 04-Дек 04:54

Часовой пояс: UTC + 3


Вы можете начинать темы
Вы можете отвечать на сообщения
Вы не можете редактировать свои сообщения
Вы не можете удалять свои сообщения
Вы не можете голосовать в опросах
Вы не можете прикреплять файлы к сообщениям
Вы можете скачивать файлы