Как я возненавидел математику / Comment j'ai deteste les maths / How I Came to Hate Math (Оливье Пейон / Olivier Peyon) [2013, Франция, документальная утопия, DVB] Original (Fre) + Sub (Rus, Eng, Fre, Deu)


Статистика раздачи [Обновить пиров]
Размер:  2.51 GB   |    Зарегистрирован:  8 месяцев 16 дней   |    Скачан:  0 раз

Полного источника не было: Никогда

 
   
 
 
 

[Цитировать]

Как я возненавидел математику
Comment j'ai détesté les maths- Страна: Франция
Жанр: документальная утопия
Год выпуска: 2013
Продолжительность: 01:38:50
Перевод: Субтитры
Cубтитры: русские
Оригинальная аудиодорожка: французский
Режиссер: Оливье Пейон / Olivier PeyonВ ролях: Жан Домбре / Jean Dhombres, Седрик Вийани / Cédric Villani, Джим Симонс / Jim Simons
Описание: Что поражает больше всего при встрече с математиком – это блеск в его глазах и внезапная волна эмоций, стремящаяся захлестнуть вас его радостью от разрешения какой-либо теоремы. Значение математики в современном мире, безусловно, возрастает. Так почему же она является практически единственным предметом, вызывающим у учеников не просто кислую гримасу, но приводящим многих в состояние ужаса?
Доп. информация: Hot Bird (13.0°E) TV5MONDE Europe DVB-S. Во время нефранцузской речи вшитые французские субтитры.
Награды: номинация на премию "Сезар" 2014 в категории "Лучший документальный фильм"; премия "Открытие" International science film festival Pariscience 2015.

Качество видео: DVB
Формат видео: TS
Видео: MPEG Video 2, 720x576@1024x576 (16:9), 25 fps, ~3259 kbps avg, 0.314 bit/pixel
Аудио: MPEG Audio 2, 2 ch, 48 kHz, 192 kbps - французский
Формат субтитров: PGS

MediaInfo

Общее
Идентификатор : 1 (0x1)
Полное имя : F:\My Torrents 3\[apreder]Comment_j'ai_deteste_les_maths(2013)DVB.ts
Формат : MPEG-TS
Размер файла : 2,51 Гбайт
Продолжительность : 1 ч. 38 м.
Режим общего битрейта : Переменный
Общий поток : 3633 Кбит/сек
Максимальный общий битрейт : 35,5 Мбит/сек
Видео
Идентификатор : 4113 (0x1011)
Идентификатор меню : 1 (0x1)
Формат : MPEG Video
Версия формата : Version 2
Профиль формата : Main@Main
Параметр BVOP формата : Да
Параметр матрицы формата : Выборочная
Параметр GOP формата : Variable
Format_Settings_PictureStructure : Frame
Идентификатор кодека : 2
Продолжительность : 1 ч. 38 м.
Вид битрейта : Переменный
Битрейт : 3259 Кбит/сек
Ширина : 720 пикселей
Высота : 576 пикселей
Соотношение сторон : 16:9
Частота кадров : 25,000 кадров/сек
Стандарт вещания : PAL
Цветовое пространство : YUV
Субдискретизация насыщенности : 4:2:0
Битовая глубина : 8 бит
Тип развёртки : Чересстрочная
Порядок развёртки : Верхнее поле первое
Метод сжатия : С потерями
Бит/(Пиксели*Кадры) : 0.314
Временной код первого кадра : 00:00:00:00
Оригинал временного кода : Group of pictures header
Размер потока : 2,25 Гбайт (90%)
Аудио
Идентификатор : 4352 (0x1100)
Идентификатор меню : 1 (0x1)
Формат : MPEG Audio
Версия формата : Version 1
Профиль формата : Layer 2
Идентификатор кодека : 4
Продолжительность : 1 ч. 38 м.
Вид битрейта : Постоянный
Битрейт : 192 Кбит/сек
Каналы : 2 канала
Частота : 48,0 КГц
Метод сжатия : С потерями
Размер потока : 136 Мбайт (5%)
Язык : French
Текст #1
Идентификатор : 4608 (0x1200)
Идентификатор меню : 1 (0x1)
Формат : PGS
Идентификатор кодека : 144
Продолжительность : 1 ч. 38 м.
Задержка видео : 9 с. 960 мс.
Язык : Russian
Текст #2
Идентификатор : 4609 (0x1201)
Идентификатор меню : 1 (0x1)
Формат : PGS
Идентификатор кодека : 144
Продолжительность : 1 ч. 38 м.
Задержка видео : 9 с. 960 мс.
Язык : English
Текст #3
Идентификатор : 4610 (0x1202)
Идентификатор меню : 1 (0x1)
Формат : PGS
Идентификатор кодека : 144
Продолжительность : 1 ч. 38 м.
Задержка видео : 11 с.
Язык : French
Текст #4
Идентификатор : 4611 (0x1203)
Идентификатор меню : 1 (0x1)
Формат : PGS
Идентификатор кодека : 144
Продолжительность : 1 ч. 38 м.
Задержка видео : 9 с. 960 мс.
Язык : German
Текст #5
Идентификатор : 4612 (0x1204)
Идентификатор меню : 1 (0x1)
Формат : PGS
Идентификатор кодека : 144
Продолжительность : 1 ч. 38 м.
Задержка видео : 9 с. 960 мс.
Язык : Dutch
Текст #6
Идентификатор : 4613 (0x1205)
Идентификатор меню : 1 (0x1)
Формат : PGS
Идентификатор кодека : 144
Задержка видео : 11 с.
Язык : Romanian

Скриншот c названием фильма

Скриншоты


Резервные скриншоты


-
[teatrix.ru].t23081.torrent 
Торрент: Зарегистрирован [ 2016-03-21 00:33 ] · C9BF025FB6C094CD3AD0C9188FF804820CD9B272

Скачать .torrent

Скачать

13 KB

Статус: проверено
Скачан: 0 раз
Размер: 2.51 GB
terms.php



Быстрый ответ

Имя:

      
Для отправки сообщений необходимо включить JavaScript
Показать сообщения:    

Текущее время: 06-Дек 18:57

Часовой пояс: UTC + 3


Вы можете начинать темы
Вы можете отвечать на сообщения
Вы не можете редактировать свои сообщения
Вы не можете удалять свои сообщения
Вы не можете голосовать в опросах
Вы не можете прикреплять файлы к сообщениям
Вы можете скачивать файлы