(Classical, Concerto) W.A. Mozart - Clarinet Concerto KV.622, Clarinet Quinte KV.581 - Sir Neville Marriner, Academy of St Martin-in-the-Fields - 2004, FLAC (image+.cue) lossless


Статистика раздачи [Обновить пиров]
Размер:  259 MB   |    Зарегистрирован:  8 месяцев 19 дней   |    Скачан:  0 раз

Полного источника не было: Никогда

 
   
 
 
 

[Цитировать]

Wolfgang Amadeus Mozart - Clarinet Concerto KV.622, Clarinet Quintet KV.581
Sir Neville Marriner & Academy of St Martin-in-the-Fields.

Жанр: Classical
Страна-производитель диска: E.U.
Год издания диска: 2004
Издатель (лейбл): PentaTone classics
Номер по каталогу: PTC 5186 048
Дата записи: 2000
Аудиокодек: FLAC
Тип рипа: image+.cue
Битрейт аудио: lossless
Продолжительность: 01:01:44
Источник: demonoid
Наличие сканов в содержимом раздачи: да
Треклист:
Clarinet Concerto in A major, KV.622
01. I.Allegro [11:47]
02. II.Adagio [08:18]
03. III.Rondo: Allegro [08:34]
Clarinet Quintet in A major, KV.581
04. I.Allegro [09:22]
05. II.Larghetto [07:07]
06. III.Menuetto [06:57]
07. IV.Allegretto con variazione [09:54]
Исполнители:
Academy of St Martin-in-the-Fields
Sir Neville Marriner - дирижер.
Andrew Marriner - кларнет.

Лог создания рипа

Exact Audio Copy V1.0 beta 3 from 29. August 2011
EAC extraction logfile from 22. February 2012, 14:11
Academy Of St.Martin In The Fields - Andrew Marriner - Sir Neville Marriner / Clarinet Concerto K.622, Clarinet Quintet K.581
Used drive : PLEXTOR DVDR PX-880SA Adapter: 0 ID: 2
Read mode : Secure
Utilize accurate stream : Yes
Defeat audio cache : Yes
Make use of C2 pointers : No
Read offset correction : 6
Overread into Lead-In and Lead-Out : No
Fill up missing offset samples with silence : Yes
Delete leading and trailing silent blocks : No
Null samples used in CRC calculations : Yes
Used interface : Native Win32 interface for Win NT & 2000
Used output format : Internal WAV Routines
Sample format : 44.100 Hz; 16 Bit; Stereo
TOC of the extracted CD
Track | Start | Length | Start sector | End sector
---------------------------------------------------------
1 | 0:00.00 | 11:46.39 | 0 | 52988
2 | 11:46.39 | 8:17.57 | 52989 | 90320
3 | 20:04.21 | 8:33.43 | 90321 | 128838
4 | 28:37.64 | 9:21.36 | 128839 | 170949
5 | 37:59.25 | 7:06.32 | 170950 | 202931
6 | 45:05.57 | 6:56.15 | 202932 | 234146
7 | 52:01.72 | 9:53.74 | 234147 | 278695
Range status and errors
Selected range
Filename D:\Rip\Clarinet Concerto K.622, Clarinet Quintet K.581\Sir Neville Marriner - Clarinet Concerto K.622, Clarinet Quintet K.581.wav
Peak level 98.8 %
Extraction speed 5.7 X
Range quality 100.0 %
Test CRC F2768575
Copy CRC F2768575
Copy OK
No errors occurred
AccurateRip summary
Track 1 not present in database
Track 2 not present in database
Track 3 not present in database
Track 4 not present in database
Track 5 not present in database
Track 6 not present in database
Track 7 not present in database
None of the tracks are present in the AccurateRip database
End of status report
---- CUETools DB Plugin V2.1.4
[CTDB TOCID: OqI1sM4MYCkikU0gYxT8jIcuJuE-] disk not present in database
Submit result: OqI1sM4MYCkikU0gYxT8jIcuJuE- has been uploaded
==== Log checksum C3F95275B6609F5D74F407CB3B7CCD27BF3B949E0C280F9547AE898E6ABA0ACD ====

Содержание индексной карты (.CUE)

REM GENRE Classical
REM DATE 2004
REM DISCID 520E8307
REM COMMENT "ExactAudioCopy v1.0b3"
PERFORMER "Academy Of St.Martin In The Fields - Andrew Marriner - Sir Neville Marriner"
TITLE "Clarinet Concerto K.622, Clarinet Quintet K.581"
FILE "Sir Neville Marriner - Clarinet Concerto K.622, Clarinet Quintet K.581.wav" WAVE
TRACK 01 AUDIO
TITLE "Clarinet Concerto in A major, KV.622 I.Allegro"
PERFORMER "Sir Neville Marriner"
INDEX 01 00:00:00
TRACK 02 AUDIO
TITLE "Clarinet Concerto in A major, KV.622 II.Adagio"
PERFORMER "Sir Neville Marriner"
INDEX 01 11:46:39
TRACK 03 AUDIO
TITLE "Clarinet Concerto in A major, KV.622 III.Rondo: Allegro"
PERFORMER "Sir Neville Marriner"
INDEX 01 20:04:21
TRACK 04 AUDIO
TITLE "Clarinet Quintet in A major, KV.581 I.Allegro"
PERFORMER "Sir Neville Marriner"
INDEX 01 28:37:64
TRACK 05 AUDIO
TITLE "Clarinet Quintet in A major, KV.581 II.Larghetto"
PERFORMER "Sir Neville Marriner"
INDEX 01 37:59:25
TRACK 06 AUDIO
TITLE "Clarinet Quintet in A major, KV.581 III.Menuetto"
PERFORMER "Sir Neville Marriner"
INDEX 01 45:05:57
TRACK 07 AUDIO
TITLE "Clarinet Quintet in A major, KV.581 IV.Allegretto con variazione"
PERFORMER "Sir Neville Marriner"
INDEX 01 52:01:72

Лог проверки качества

-----------------------
DON'T MODIFY THIS FILE
-----------------------
PERFORMER: auCDtect Task Manager, ver. 1.6.0 RC1 build 1.6.0.1
Copyright (c) 2008-2010 y-soft. All rights reserved
http://y-soft.org
ANALYZER: auCDtect: CD records authenticity detector, version 0.8.2
Copyright (c) 2004 Oleg Berngardt. All rights reserved.
Copyright (c) 2004 Alexander Djourik. All rights reserved.
FILE: Sir Neville Marriner - Clarinet Concerto K.622, Clarinet Quintet K.581.flac
Size: 264965198 Hash: 27B7CCF2550F8FBE7A71B458AB4DFBA5 Accuracy: -m0
Conclusion: CDDA 99%
Signature: 82357BC40EF0C89DE54BF2C935C047B2E3A593F7

Скриншот спектра частот

Доп. информация:Neville Marriner

Сэр Невилл Марринер (англ. Neville Marriner; род. 15 апреля 1924, Линкольн) — британский скрипач и дирижёр.
Биография:
Учился в Королевском музыкальном колледже в Лондоне и в Парижской консерватории (класс скрипки Рене Бенедетти). Как скрипач выступал с Лондонским филармоническим оркестром и Лондонским симфоническим оркестром, работал с Тосканини, Фуртвенглером, Караяном. Изучал дирижёрское искусство в США у Пьера Монтё. В 1959 году создал камерный оркестр современных инструментов «Академия Святого Мартина в полях», записал с ним множество произведений. В 1969—1978 годах был музыкальным руководителем Лос-Анджелесского камерного оркестра, в 1979—1986 — оркестра Миннесоты, в 1986—1989 — симфонического оркестра Штутгартского радио. Является также главным приглашённым дирижёром Оркестра Кадакеса.
Сын — кларнетист Эндрю Марринер.
Репертуар:
Репертуар Марринера-дирижёра включал как композиторов эпохи барокко, так и английскую музыку XX века (Бриттен), в том числе — оперную. Но главный его композитор — Моцарт, именно он отбирал, аранжировал и записывал со своим оркестром музыку для фильма Милоша Формана «Амадей» (1984).
Признание:
Командор Ордена Британской Империи (1979). Кавалер Ордена искусств и литературы (Франция, 1995). Возведен в рыцарское достоинство в 1985 году.
Введён в Зал славы журнала Gramophone.
[teatrix.ru].t23082.torrent 
Торрент: Зарегистрирован [ 2016-03-21 00:33 ] · 7FEF910E8A9BC3A57E4DA633231E77A9B3E0B781

Скачать .torrent

Скачать

11 KB

Статус: проверено
Скачан: 0 раз
Размер: 259 MB
terms.php



Быстрый ответ

Имя:

      
Для отправки сообщений необходимо включить JavaScript
Показать сообщения:    

Текущее время: 10-Дек 00:19

Часовой пояс: UTC + 3


Вы можете начинать темы
Вы можете отвечать на сообщения
Вы не можете редактировать свои сообщения
Вы не можете удалять свои сообщения
Вы не можете голосовать в опросах
Вы не можете прикреплять файлы к сообщениям
Вы можете скачивать файлы