(Classical, piano) Петр Чайковский - 18 фортепианных пьес, Oр.72 - Константин Шамрай - 2012, FLAC (image+.cue) lossless


 

[Цитировать]

Петр Чайковский - 18 фортепианных пьес, Oр.72 - Константин Шамрай
Жанр: Classical, piano
Год издания диска: 2012
Издатель (лейбл): Naxos
Номер по каталогу: 8.572225
Дата записи: 2010
Аудиокодек: FLAC
Тип рипа: image+.cue
Битрейт аудио: lossless
Продолжительность: 67:09
Источник: собственный рип
Наличие сканов в содержимом раздачи: да
Треклист:
Петр Ильич Чайковский
18 фортепианных пьес, Oр.72
[1] Impromptu: Allegro moderato e giocoso
[2] Berceuse: Andante mosso
[3] Tendres reproches: Allegro non tanto ed agitato
[4] Danse caractéristique: Allegro giusto
[5] Meditation: Andante mosso
[6] Mazurka pour danser: Tempo di mazurka
[7] Polacca de concert: Tempo di polacca
[8] Dialogue: Allegro moderato
[9] Un poco di Schumann: Moderato mosso
[10] Scherzo-fantaisie: Vivace assai
[11] Valse-bluette: Tempo di valse
[12] L'espiègle: Allegro moderato
[13] Echo rustique: Allegro non troppo
[14] Chant élegiaque: Adagio
[15] Un poco di Chopin: Tempo di mazurka
[16] Valse à cinq temps: Vivace
[17] Passé lointain: Moderato assai quasi andante
[18] Scene dansante: Allegro non tanto
Исполнители:
Константин Шамрай фортепиано

Лог создания рипа

Exact Audio Copy V1.0 beta 3 from 29. August 2011
EAC extraction logfile from 3. June 2015, 0:43
Konstantin Shamray / Tchaikovsky - Eighteen Piano Pieces, Op.72
Used drive : HL-DT-STDVDRAM GU70N Adapter: 0 ID: 0
Read mode : Secure
Utilize accurate stream : Yes
Defeat audio cache : Yes
Make use of C2 pointers : No
Read offset correction : 48
Overread into Lead-In and Lead-Out : No
Fill up missing offset samples with silence : Yes
Delete leading and trailing silent blocks : No
Null samples used in CRC calculations : Yes
Used interface : Native Win32 interface for Win NT & 2000
Used output format : User Defined Encoder
Selected bitrate : 128 kBit/s
Quality : High
Add ID3 tag : No
Command line compressor : C:\Program Files (x86)\Exact Audio Copy\Flac\flac.exe
Additional command line options : -V -8 -T "Date=%year%" -T "Genre=%genre%" %source%
TOC of the extracted CD
Track | Start | Length | Start sector | End sector
---------------------------------------------------------
1 | 0:00.00 | 3:41.37 | 0 | 16611
2 | 3:41.37 | 5:29.48 | 16612 | 41334
3 | 9:11.10 | 2:30.47 | 41335 | 52631
4 | 11:41.57 | 3:35.53 | 52632 | 68809
5 | 15:17.35 | 4:22.37 | 68810 | 88496
6 | 19:39.72 | 3:11.65 | 88497 | 102886
7 | 22:51.62 | 5:25.20 | 102887 | 127281
8 | 28:17.07 | 3:30.09 | 127282 | 143040
9 | 31:47.16 | 2:33.03 | 143041 | 154518
10 | 34:20.19 | 6:36.56 | 154519 | 184274
11 | 40:57.00 | 2:30.21 | 184275 | 195545
12 | 43:27.21 | 1:49.27 | 195546 | 203747
13 | 45:16.48 | 2:19.01 | 203748 | 214173
14 | 47:35.49 | 6:26.64 | 214174 | 243187
15 | 54:02.38 | 2:52.02 | 243188 | 256089
16 | 56:54.40 | 1:45.19 | 256090 | 263983
17 | 58:39.59 | 4:36.34 | 263984 | 284717
18 | 63:16.18 | 3:50.57 | 284718 | 302024
Range status and errors
Selected range
Filename C:\temp\Naxos_8.572225 - Tchaikovsky - Eighteen Piano Pieces, Op.72\Tchaikovsky - Eighteen Piano Pieces, Op.72.wav
Peak level 100.0 %
Extraction speed 2.2 X
Range quality 100.0 %
Test CRC 843663C3
Copy CRC 843663C3
Copy OK
No errors occurred
AccurateRip summary
Track 1 not present in database
Track 2 not present in database
Track 3 not present in database
Track 4 not present in database
Track 5 not present in database
Track 6 not present in database
Track 7 not present in database
Track 8 not present in database
Track 9 not present in database
Track 10 not present in database
Track 11 not present in database
Track 12 not present in database
Track 13 not present in database
Track 14 not present in database
Track 15 not present in database
Track 16 not present in database
Track 17 not present in database
Track 18 not present in database
None of the tracks are present in the AccurateRip database
End of status report
==== Log checksum DE57AD81CB0ABA5F7381878ED3A0897E83DA8A06F4ADE28D3B0C99AAF99768C9 ====



Показать сообщения:    

Текущее время: 11-Дек 12:56

Часовой пояс: UTC + 3


Вы не можете начинать темы
Вы не можете отвечать на сообщения
Вы не можете редактировать свои сообщения
Вы не можете удалять свои сообщения
Вы не можете голосовать в опросах
Вы не можете прикреплять файлы к сообщениям
Вы не можете скачивать файлы