[SACD-R][OF] Glenn Gould - J.S.Bach: English Suites (Complete) - 1977/012 (Classical, Piano)


Статистика раздачи [Обновить пиров]
Размер:  4.49 GB   |    Зарегистрирован:  8 месяцев 16 дней   |    Скачан:  1 раз

Полного источника не было: 1 месяц 30 дней

 
   
 
 
 

[Цитировать]

Glenn Gould
J.S.Bach: English Suites (Complete)

- Формат записи/Источник записи: [SACD-R][OF]
Наличие водяных знаков: Нет
Год издания/переиздания диска: 1977/2012
Жанр: Classical, Piano
Издатель(лейбл): Sony Classical
Продолжительность: 00:51:59+59:46
Наличие сканов в содержимом раздачи: Нет
Контейнер: ISO (*.iso)
Тип рипа: image
Разрядность: 64(2,8 MHz/1 Bit)
Формат: DSD
Количество каналов: 2.0
Источник (релизер): grillbrill (PS³SACD`s Forum)
http://sa-cd.net/showtitle/8357

Треклист - Disc 1

English Suite No. 1
01. I. Prelude
02. II. Allemande
03. III. Courante I
04. IV. Courante II
05. V. Double I
06. VI. Double II
07. VII. Sarabande
08. VIII. Bourree I
09. IX. Bourree II (with da capo I)
10. X. Gigue
English Suite No. 2
11. I. Prelude
12. II. Allemande
13. III. Courante
14. IV. Sarabande - Les agrements de la meme Sarabande
15. V. Bourree I
16. VI. Bourree II (with da capo I)
17. VII. Gigue
English Suite No. 3
18. I. Prelude
19. II. Allemande
20. III. Courante
21. IV. Sarabande - Les agrements de la meme Sarabande
22. V. Gavotte I
23. VI. Gavotte II (with da capo I)
24. VII. Gigue

Треклист - Disc 2

English Suite No. 4
01. I. Prelude
02. II. Allemande
03. III. Courante
04. IV. Sarabande
05. V. Menuet I
06. VI. Menuet II (with da capo I)
07. VII. Gigue
English Suite No. 5
08. I. Prelude
09. II. Allemande
10. III. Courante
11. IV. Sarabande
12. V. Passepied I (en Rondeau)
13. VI. Passepied II (with da capo I)
14. VII. Gigue
English Suite No. 6
15. I. Prelude
16. II. Allemande
17. III. Courante
18. IV. Sarabande
19. V. Double
20. VI. Gavotte I
21. VII. Gavotte II (with da capo I)
22. VIII. Gigue
-Glenn Gould, piano-

Disc 1 - DR 11

foobar2000 1.3.8 / Замер динамического диапазона (DR) 1.1.1
Дата отчёта: 2016-02-23 20:09:41
--------------------------------------------------------------------------------
Анализ: Glenn Gould / Bach: English Suites (Complete)
--------------------------------------------------------------------------------
DR Пики RMS Продолжительность трека
--------------------------------------------------------------------------------
DR11 -3.85 дБ -19.67 дБ 2:42 01-English Suite No. 1 I. Prelude
DR10 -4.87 дБ -18.63 дБ 2:10 02-II. Allemande
DR12 -4.69 дБ -20.00 дБ 1:48 03-III. Courante I
DR12 -3.95 дБ -20.27 дБ 2:11 04-IV. Courante II
DR11 -3.23 дБ -20.02 дБ 2:06 05-V. Double I
DR13 -4.84 дБ -20.30 дБ 1:59 06-VI. Double II
DR14 -8.32 дБ -27.35 дБ 4:07 07-VII. Sarabande
DR10 -3.72 дБ -16.86 дБ 1:16 08-VIII. Bourree I
DR10 -3.71 дБ -17.79 дБ 2:14 09-IX. Bourree II (with da capo I)
DR10 -3.51 дБ -17.06 дБ 2:01 10-X. Gigue
DR10 -3.65 дБ -16.71 дБ 4:31 11-English Suite No. 2 I. Prelude
DR10 -6.77 дБ -19.81 дБ 1:34 12-II. Allemande
DR9 -5.75 дБ -19.65 дБ 1:11 13-III. Courante
DR11 -5.41 дБ -21.89 дБ 3:03 14-IV. Sarabande - Les agrements de la meme Sarabande
DR9 -5.05 дБ -17.86 дБ 1:26 15-V. Bourree I
DR10 -4.03 дБ -17.38 дБ 2:00 16-VI. Bourree II (with da capo I)
DR10 -4.30 дБ -17.16 дБ 2:28 17-VII. Gigue
DR10 -4.19 дБ -16.66 дБ 2:53 18-English Suite No. 3 I. Prelude
DR11 -7.13 дБ -21.19 дБ 1:44 19-II. Allemande
DR10 -4.46 дБ -17.84 дБ 1:20 20-III. Courante
DR12 -6.09 дБ -23.87 дБ 3:19 21-IV. Sarabande - Les agrements de la meme Sarabande
DR9 -6.38 дБ -20.30 дБ 0:50 22-V. Gavotte I
DR11 -6.37 дБ -21.35 дБ 1:09 23-VI. Gavotte II (with da capo I)
DR11 -4.05 дБ -17.29 дБ 1:55 24-VII. Gigue
--------------------------------------------------------------------------------
Количество треков: 24
Реальные значения DR: DR11
Частота: 2822400 Гц / Частота PCM: 88200 Гц
Каналов: 2
Разрядность: 24
Битрейт: 5645 кбит/с
Кодек: DSD64
================================================================================

Disc 2 - DR 12

foobar2000 1.3.8 / Замер динамического диапазона (DR) 1.1.1
Дата отчёта: 2016-02-23 20:14:48
--------------------------------------------------------------------------------
Анализ: Glenn Gould / Bach: English Suites (Complete)
--------------------------------------------------------------------------------
DR Пики RMS Продолжительность трека
--------------------------------------------------------------------------------
DR11 -3.40 дБ -17.93 дБ 4:25 01-English Suite No. 4 I. Prelude
DR11 -4.34 дБ -18.94 дБ 2:46 02-II. Allemande
DR10 -5.66 дБ -20.08 дБ 0:54 03-III. Courante
DR13 -4.11 дБ -22.41 дБ 3:01 04-IV. Sarabande
DR11 -7.37 дБ -22.76 дБ 1:21 05-V. Menuet I
DR11 -5.62 дБ -21.67 дБ 1:57 06-VI. Menuet II (with da capo I)
DR12 -5.59 дБ -20.92 дБ 2:16 07-VII. Gigue
DR12 -3.17 дБ -17.36 дБ 4:44 08-English Suite No. 5 I. Prelude
DR13 -8.90 дБ -25.73 дБ 2:58 09-II. Allemande
DR12 -10.05 дБ -25.47 дБ 1:51 10-III. Courante
DR13 -6.47 дБ -23.83 дБ 1:59 11-IV. Sarabande
DR10 -4.73 дБ -18.58 дБ 1:07 12-V. Passepied I (en Rondeau)
DR11 -4.73 дБ -19.26 дБ 1:37 13-VI. Passepied II (with da capo I)
DR11 -4.50 дБ -19.04 дБ 2:14 14-VII. Gigue
DR11 -3.33 дБ -17.43 дБ 8:25 15-English Suite No. 6 I. Prelude
DR11 -5.75 дБ -20.77 дБ 3:11 16-II. Allemande
DR11 -5.91 дБ -22.71 дБ 2:47 17-III. Courante
DR13 -4.17 дБ -24.46 дБ 3:07 18-IV. Sarabande
DR12 -9.17 дБ -26.51 дБ 2:15 19-V. Double
DR12 -7.51 дБ -23.47 дБ 1:34 20-VI. Gavotte I
DR12 -7.50 дБ -24.32 дБ 2:19 21-VII. Gavotte II (with da capo I)
DR12 -3.72 дБ -19.10 дБ 2:59 22-VIII. Gigue
--------------------------------------------------------------------------------
Количество треков: 22
Реальные значения DR: DR12
Частота: 2822400 Гц / Частота PCM: 88200 Гц
Каналов: 2
Разрядность: 24
Битрейт: 5645 кбит/с
Кодек: DSD64
================================================================================
[teatrix.ru].t23084.torrent 
Торрент: Зарегистрирован [ 2016-03-21 00:33 ] · 4A519BF5B09C9744D760E9BC4AD96ACD63A43A1A

Скачать .torrent

Скачать

23 KB

Статус: проверено
Скачан: 1 раз
Размер: 4.49 GB
terms.php



Быстрый ответ

Имя:

      
Для отправки сообщений необходимо включить JavaScript
Показать сообщения:    

Текущее время: 06-Дек 15:08

Часовой пояс: UTC + 3


Вы можете начинать темы
Вы можете отвечать на сообщения
Вы не можете редактировать свои сообщения
Вы не можете удалять свои сообщения
Вы не можете голосовать в опросах
Вы не можете прикреплять файлы к сообщениям
Вы можете скачивать файлы