Продавец четырех времен года / Handler der vier Jahreszeiten (Райнер Вернер Фассбиндер / Rainer Werner Fassbinder) [1971, Германия (ФРГ), Драма, DVD9 (Custom)] DVO + VO + Sub Eng, Rus + Original Deu / Criterion Collection#758


Статистика раздачи [Обновить пиров]
Размер:  7.68 GB   |    Зарегистрирован:  8 месяцев 18 дней   |    Скачан:  0 раз

Полного источника не было: Никогда

 
   
 
 
 

[Цитировать]

Продавец четырех времен года / Handler der vier Jahreszeiten / The Merchant of Four Seasons / Criterion Collection#758
Страна:Германия (ФРГ)Студия:Tango Film, Zweites Deutsches Fernsehen (ZDF).Жанр:ДрамаГод выпуска:1971
Продолжительность:01:28:38Производство:The Criterion Collection #758Перевод 1:Профессиональный (двухголосый закадровый)Перевод 2:Одноголосый (закадровый)Cубтитры:Английские, Русские
Премьера (мир):4.11.1971
Режиссер:Райнер Вернер Фассбиндер / Rainer Werner FassbinderВ ролях:Ханс Хиршмюллер — Ханс Эпп
Ирм Херманн — Ирмгард Эпп
Ханна Шигулла — Анна Эпп, сестра Ханса
Андреа Шобер — Рената Эпп, дочь Ханса
Густи Крайссль — мать Эппов
Клаус Лёвич — Харри Радек
Карл Шейдт — Анцелль
Ингрид Кавен — большая любовь Ханса
Хайде Симон — Хайде, сестра Ханса
Курт Рааб — Курт, муж Хайде
Райнер Вернер Фассбиндер — Цукер (эпизод)
Юрген Прохнов — человек (эпизод)
Описание:Трагедия одиночки, оказавшегося лишним в обществе «всеобщего благоденствия» Эпохи Экономического чуда. Ханс Эпп несколько лет провел вдали от родины в иностранном легионе, и вот вернулся назад. «Уж лучше бы тебе не возвращаться!» — злобно шипит мать, встречая сына на пороге дома. И Ханс уходит, устраивается на работу в полицию, обзаводится семьей, потом становится продавцом овощей в разъездном магазинчике. Жену он не любит, она платит ему тем же. Возлюбленная Ханса слишком горда, чтобы связать жизнь с уличным торговцем. Одна из стычек с женой завершается тяжелейшим инфарктом. Разочаровавшись в жизни, герой решается на самоубийство. Исподволь, но настойчиво каждый участник действия подталкивает его к этому решению. И только сестра Анна пытается оказать ему моральную поддержку, но не может предотвратить его роковую кончину.
Доп. информация:Исходник найден в сети.Звуковые дорожки и субтитрывзяты из раздачи-http://teatrix.ru/viewtopic.php?t=6587.Релиз приведен в состояние соответствующее рекомендациям модератора AlsKnight.Меню неотредактировано, переключение звуковых дорожек с пульта.
Огромное СпасибоВсем, без чьей помощи этот релиз не состоялся бы!Сценарий:Райнер Вернер ФассбиндерПродюсер:Райнер Вернер ФасбиндерОператор:Дитрих ЛоманнКомпозитор:Граната, РоккоХудожник:Курт Рааб, Ута ВильгельмМонтаж:Теа Эймеш

Награды и номинации

Рецензия

Софт

PgcDemux 1.2.0.5 - разделение компонентов диска на файлы;
BeHappy + BeLight - MP3, AC3 -> Wav
Minnetonka Audio SurCode, Sound Forge pro 10 - Wav -> AC3
Subtitle Workshop, SubtitleCreator, DVDSubEdit (субтитры).MuxMan DVD authoring Professional 1.4.4 - мультиплексирование и авторингDVDRemake Pro 3.6.3 - реавторинг DVD;
DVD Shrink 3.2 - Сэмпл
--
DVO VO

Точка перехода

Бонусы:(Без перевода)

-Audio commentary featuring filmmaker Wim Wenders-Interviews with actors Irm Hermann and Hans Hirschmuller-Interview with film scholar Eric Rentschler
Меню:Английский, статичное, озвученное.Сэмпл:https://www.sendspace.com/file/1w5cjrТип релиза:DVD9 (Custom)
Контейнер:DVD-Video
Видео:NTSC 4:3 (720x480) VBR, 7582 Кбит/сек, 23,976 (24000/1001) кадра/секАудио 1:Немецкий:AC3, 1 ch, 48.0 KHz, 384 Кбит/сек / (Оригинал)Аудио 2:Английский:AC3, 1 ch, 48.0 KHz, 192 Кбит/сек / Комментарий Wim WendersАудио 3:Русский:AC3, 1 ch, 48.0 KHz, 128 Кбит/сек / Профессиональный (двухголосый закадровый)Аудио 4:Русский:AC3, 1 ch, 48.0 KHz, 128 Кбит/сек / Одноголосый (закадровый)
Формат субтитров:prerendered (DVD/IDX+SUB)

Dvd Info

Title: W(media)
Size: 7.68 Gb ( 8 053 108 KBytes ) - DVD-9
Enabled regions: 1, 2, 3, 4, 5, 6, 7, 8
VTS_01 :
Play Length:
Video: NTSC 4:3 (720x480) VBR
VTS_02 :
Play Length: 01:28:38
Video: NTSC 4:3 (720x480) VBR
Audio:
Deutsch (Dolby AC3, 1 ch)
English (Dolby AC3, 1 ch)
Russian (Dolby AC3, 1 ch)
Russian (Dolby AC3, 1 ch)
Subtitles:
English
Russian
VTS_03 :
Play Length: 00:00:20
Video: NTSC 4:3 (720x480) VBR
VTS_04 :
Play Length: 00:09:12
Video: NTSC 16:9 (720x480) VBR, Auto Letterboxed
Audio:
Deutsch (Dolby AC3, 1 ch)
Subtitles:
English
VTS_05 :
Play Length: 00:13:24
Video: NTSC 16:9 (720x480) VBR, Auto Letterboxed
Audio:
Deutsch (Dolby AC3, 1 ch)
Subtitles:
English
VTS_06 :
Play Length: 00:26:08
Video: NTSC 16:9 (720x480) VBR, Auto Letterboxed
Audio:
English (Dolby AC3, 1 ch)
Subtitles:
English
VTS_07 :
Play Length:
Video: NTSC 4:3 (720x480) VBR

Mediainfo

Общее
Полное имя : F:\The Merchant of Four Seasons DVD-9_Custom_Criterion#758\VIDEO_TS\VTS_02_1.VOB
Формат : MPEG-PS
Размер файла : 1024 Мбайт
Продолжительность : 16 м.
Режим общего битрейта : Переменный
Общий поток : 8591 Кбит/сек
Видео
Идентификатор : 224 (0xE0)
Формат : MPEG Video
Версия формата : Version 2
Профиль формата : Main@Main
Параметр BVOP формата : Да
Параметр матрицы формата : Выборочная
Параметр GOP формата : Variable
Продолжительность : 16 м.
Вид битрейта : Переменный
Битрейт : 7588 Кбит/сек
Максимальный битрейт : 9800 Кбит/сек
Ширина : 720 пикселей
Высота : 480 пикселей
Соотношение сторон : 4:3
Частота кадров : 23,976 (24000/1001) кадра/сек
Цветовое пространство : YUV
Субдискретизация насыщенности : 4:2:0
Битовая глубина : 8 бит
Тип развёртки : Прогрессивная
Порядок развёртки : 2:3 Pulldown
Метод сжатия : С потерями
Бит/(Пиксели*Кадры) : 0.916
Временной код первого кадра : 00:59:40:00
Оригинал временного кода : Group of pictures header
Размер потока : 904 Мбайт (88%)
Аудио #1
Идентификатор : 189 (0xBD)-128 (0x80)
Формат : AC-3
Формат/Информация : Audio Coding 3
Расширение режима : CM (complete main)
Параметр Endianness формата : Big
Режим смешивания : DVD-Video
Продолжительность : 16 м.
Вид битрейта : Постоянный
Битрейт : 384 Кбит/сек
Каналы : 1 канал
Расположение каналов : Front: C
Частота : 48,0 КГц
Частота кадров : 31,250 кадров/сек (1536 spf)
Метод сжатия : С потерями
Размер потока : 45,8 Мбайт (4%)
Аудио #2
Идентификатор : 189 (0xBD)-129 (0x81)
Формат : AC-3
Формат/Информация : Audio Coding 3
Расширение режима : CM (complete main)
Параметр Endianness формата : Big
Режим смешивания : DVD-Video
Продолжительность : 16 м.
Вид битрейта : Постоянный
Битрейт : 192 Кбит/сек
Каналы : 1 канал
Расположение каналов : Front: C
Частота : 48,0 КГц
Частота кадров : 31,250 кадров/сек (1536 spf)
Метод сжатия : С потерями
Размер потока : 22,9 Мбайт (2%)
Аудио #3
Идентификатор : 189 (0xBD)-130 (0x82)
Формат : AC-3
Формат/Информация : Audio Coding 3
Расширение режима : CM (complete main)
Параметр Endianness формата : Big
Режим смешивания : DVD-Video
Продолжительность : 16 м.
Вид битрейта : Постоянный
Битрейт : 128 Кбит/сек
Каналы : 1 канал
Расположение каналов : Front: C
Частота : 48,0 КГц
Частота кадров : 31,250 кадров/сек (1536 spf)
Метод сжатия : С потерями
Размер потока : 15,3 Мбайт (1%)
Аудио #4
Идентификатор : 189 (0xBD)-131 (0x83)
Формат : AC-3
Формат/Информация : Audio Coding 3
Расширение режима : CM (complete main)
Параметр Endianness формата : Big
Режим смешивания : DVD-Video
Продолжительность : 16 м.
Вид битрейта : Постоянный
Битрейт : 128 Кбит/сек
Каналы : 1 канал
Расположение каналов : Front: C
Частота : 48,0 КГц
Частота кадров : 31,250 кадров/сек (1536 spf)
Метод сжатия : С потерями
Размер потока : 15,3 Мбайт (1%)
Текст #1
Идентификатор : 189 (0xBD)-32 (0x20)
Формат : RLE
Формат/Информация : Run-length encoding
Режим смешивания : DVD-Video
Текст #2
Идентификатор : 189 (0xBD)-33 (0x21)
Формат : RLE
Формат/Информация : Run-length encoding
Режим смешивания : DVD-Video

Скриншоты меню

Скриншоты фильма

Скриншоты доп. материалов



Полиграфия

[teatrix.ru].t23085.torrent 
Торрент: Зарегистрирован [ 2016-03-21 00:33 ] · 653659BD117FD06F8C5054410BED59C9F318460A

Скачать .torrent

Скачать

41 KB

Статус: проверено
Скачан: 0 раз
Размер: 7.68 GB
terms.php



Быстрый ответ

Имя:

      
Для отправки сообщений необходимо включить JavaScript
Показать сообщения:    

Текущее время: 08-Дек 14:57

Часовой пояс: UTC + 3


Вы можете начинать темы
Вы можете отвечать на сообщения
Вы не можете редактировать свои сообщения
Вы не можете удалять свои сообщения
Вы не можете голосовать в опросах
Вы не можете прикреплять файлы к сообщениям
Вы можете скачивать файлы