Вешние воды (Николай Стуликов) [2013 г., комедия, WEB-DLRip] Народный студенческий театр "Старый Дом" (Екатеринбург)


 

[Цитировать]

Вешние воды Название театра: Народный студенческий театр "Старый Дом" (Екатеринбург).
Год выпуска: 2013.
Жанр: комедия.
Продолжительность: 02:50:59.
Режиссер: заслуженный работник культуры России Николай Стуликов.
Действующие лица и исполнители:
Санин - Александр Шарапов,
Джемма - Марина Цой,
Фрау Леноре - Вероника Потапова,
Эмиль - Михаил Васильев,
Паеталеоне - Андрей Ким,
Клюбер - Алексей Менделев,
Дёнхофф - Андрей Койнов,
Рихтер - Григорий Ким,
Офицер - Виктор Репников,
Полозов - Владимир Потеряхин,
Марья Николаевна Полозова - Алёна Нечаева.
О спектакле:
Повесть Ивапна Тургенева (1818–1883) «Вешние воды» написана в 1871 году, более ста сорока лет назад.
Это спектакль по уникальному произведению великого русского писателя, стоящему особняком даже среди его знаменитых творений. Любовь и страсть, пережитые героем в юности, завели его жизнь в тупик. Однако на закате жизни он нашёл в себе душевные силы, чтобы попытаться начать жизнь с чистого листа. Удастся это ему или нет – кто знает, но жизнь его снова обрела смысл! Эта повесть Ивана Тургенева и сегодня являет собой чистейший родник духовности, удивительным образом совершенно незамутнённый прошедшими временами. Судьба главного героя вызывает сострадание и сопереживание, т.к. писатель подробнейшим образом рассматривает сугубо внутренний мир человека, мир его Чувств…

Дополнительная информация:
Страна: Россия .
Автор: Иван Тургенев.
Cценическая композиция, постановка, сценография, музыкальное оформление: заслуженный работник культуры России Николай Стуликов.
Художники по костюмам: Елена Азаренкова, Ольга Зуева.
Музыка из произведений Вольфганга Амадея Моцарта, Эндрю Ллойд Уэббера и неизвестных авторов.
Художественный руководитель театра: заслуженный работник культуры России Николай Стуликов.
Спектакль поставлен в апреле 1992 года,
был в репертуаре по май 2001 года,
возобновлён в мае 2013 года года.

О спектакле.
Релиз
Рип sharky.

Качество видео:...WEB-DLRip
Формат:.................AVI
Видео:..704x400 (1.76:1), 25 fps, XviD build 47 ~1579 kbps avg, 0.22 bit/pixel
Аудио:..44.100 kHz, MPEG Layer 3, 2 ch, ~128.00 kbps avg

Отчет MI

Общее
Полное имя : Veshnie.vody_NST.Staryj.dom.Ekaterinburg.2013.XviD.WEB-DLRip.fenixclub.avi
Format : AVI
Format/Info : Audio Video Interleave
Format profile : OpenDML
File size : 2.05 GiB
Duration : 2h 50mn
Overall bit rate : 1 715 Kbps
Writing application : VirtualDubMod 1.5.10.2 (build 2540/release)
Writing library : VirtualDubMod build 2540/release
Video
ID : 0
Format : MPEG-4 Visual
Format profile : Advanced Simple@L5
Format settings, BVOP : 1
Format settings, QPel : No
Format settings, GMC : No warppoints
Format settings, Matrix : Default (H.263)
Codec ID : XVID
Codec ID/Hint : XviD
Duration : 2h 50mn
Bit rate : 1 574 Kbps
Width : 704 pixels
Height : 400 pixels
Display aspect ratio : 16:9
Frame rate : 25.000 fps
Color space : YUV
Chroma subsampling : 4:2:0
Bit depth : 8 bits
Scan type : Progressive
Compression mode : Lossy
Bits/(Pixel*Frame) : 0.224
Stream size : 1.88 GiB (92%)
Writing library : XviD 1.2.0.dev47 (UTC 2006-11-01)
Audio
ID : 1
Format : MPEG Audio
Format version : Version 1
Format profile : Layer 3
Codec ID : 55
Codec ID/Hint : MP3
Duration : 2h 50mn
Bit rate mode : Constant
Bit rate : 128 Kbps
Channel(s) : 2 channels
Sampling rate : 44.1 KHz
Compression mode : Lossy
Stream size : 157 MiB (7%)
Alignment : Split accross interleaves
Interleave, duration : 40 ms (1.00 video frame)
Interleave, preload duratio : 500 ms
Writing library : LAME3.97
Encoding settings : -m s -V 4 -q 2 -lowpass 17 -b 128

Скриншоты


Альтернативный хост





Показать сообщения:    

Текущее время: 03-Дек 16:42

Часовой пояс: UTC + 3


Вы не можете начинать темы
Вы не можете отвечать на сообщения
Вы не можете редактировать свои сообщения
Вы не можете удалять свои сообщения
Вы не можете голосовать в опросах
Вы не можете прикреплять файлы к сообщениям
Вы не можете скачивать файлы