(Classic) Handel, Бородин, Mozart, Bach, Bizet, Рахманинов, Beethoven, Saint-Saens, Grieg, Chopin, Cherubini - Ave Maria. Классика в современной обработке (Анна Скассырская, Александр Квасников) - 2009, FLAC (image+.cue) lossless


 

[Цитировать]

Ave Maria Классика в современной обработке
Жанр: Classic
Страна-производитель диска: Россия
Год издания диска: 2009
Издатель (лейбл): RDM
Номер по каталогу: CDRDM 0904860
Аудиокодек: FLAC
Тип рипа: image+.cue
Битрейт аудио: lossless
Продолжительность: 00:37:47
Источник: собственный рип
Наличие сканов в содержимом раздачи: нет
Треклист:
1. Георг Фридрих Гендель - «Аллилуйя» из оратории «Мессия»
2. Александр Бородин - «Улетай на крыльях ветра» из оперы «Князь Игорь»
3. Вольфганг Амадей Моцарт - Симфония №40, Часть I
4. Иоганн Себастьян Бах - Шарль Гуно - Аве Мария
5. Жорж Бизе - Ария Кармен из оперы «Кармен»
6. Вольфганг Амадей Моцарт - Соната для фортепиано №11, часть 3 «Турецкий марш»
7. Сергей Рахманинов - Вокализ (Соч. 34, №14)
8. Людвиг Ван Бетховен - Симфония №9, финал «Оды к радости»
9. Шарль Камиль Сен-Санс - «Лебедь» из «Карнавала животных»
10. Эдвард Григ - «В пещере горного короля»
11. Фредерик Шопен - Прелюдия ми минор (Соч. 28, №4)
12. Луиджи Керубини - Менуэт
Исполнители:
Аранжировка - Анна Скассырская,
сведение - Александр Квасников.

Лог создания рипа

Exact Audio Copy V1.1 from 23. June 2015
Отчёт EAC об извлечении, выполненном 21. февраля 2016, 11:20
Various Artists / Классика в современной обработке
Дисковод: ASUS DRW-24B1LT Adapter: 1 ID: 0
Режим чтения : Достоверность
Использование точного потока : Да
Отключение кэша аудио : Да
Использование указателей C2 : Нет
Коррекция смещения при чтении : 6
Способность читать области Lead-in и Lead-out : Нет
Заполнение пропущенных сэмплов тишиной : Да
Удаление блоков с тишиной в начале и конце : Нет
При вычислениях CRC использовались нулевые сэмплы : Да
Интерфейс : Встроенный Win32-интерфейс для Win NT/2000
Выходной формат : Пользовательский кодировщик
Выбранный битрейт : 128 kBit/s
Качество : Высокий
Добавление ID3-тега : Нет
Утилита сжатия : C:\Program Files\Exact Audio Copy\Flac\flac.exe
Дополнительные параметры : -V -8 -T "Date=%year%" -T "Genre=%genre%" %source%
TOC извлечённого CD
Трек | Старт | Длительность | Начальный сектор | Конечный сектор
---------------------------------------------------------------------
1 | 0:00.00 | 3:58.08 | 0 | 17857
2 | 3:58.08 | 3:27.68 | 17858 | 33450
3 | 7:26.01 | 3:17.45 | 33451 | 48270
4 | 10:43.46 | 2:28.06 | 48271 | 59376
5 | 13:11.52 | 4:18.72 | 59377 | 78798
6 | 17:30.49 | 3:31.15 | 78799 | 94638
7 | 21:01.64 | 3:08.38 | 94639 | 108776
8 | 24:10.27 | 2:57.42 | 108777 | 122093
9 | 27:07.69 | 2:28.50 | 122094 | 133243
10 | 29:36.44 | 2:51.66 | 133244 | 146134
11 | 32:28.35 | 2:16.02 | 146135 | 156336
12 | 34:44.37 | 3:02.47 | 156337 | 170033
Характеристики диапазона извлечения и сообщения об ошибках
Выбранный диапазон
Имя файла D:\Раздачи\Various Artists - Классика в современной обработке\Various Artists - Классика в современной обработке.wav
Пиковый уровень 99.8 %
Скорость извлечения 5.7 X
Качество диапазона 100.0 %
CRC теста BC093926
CRC копии BC093926
Копирование... OK
Ошибок не произошло
AccurateRip: сводка
Трек 1 отсутствует в базе данных
Трек 2 отсутствует в базе данных
Трек 3 отсутствует в базе данных
Трек 4 отсутствует в базе данных
Трек 5 отсутствует в базе данных
Трек 6 отсутствует в базе данных
Трек 7 отсутствует в базе данных
Трек 8 отсутствует в базе данных
Трек 9 отсутствует в базе данных
Трек 10 отсутствует в базе данных
Трек 11 отсутствует в базе данных
Трек 12 отсутствует в базе данных
Ни одного трека нет в базе AccurateRip
Конец отчёта
==== Контрольная сумма отчёта 7B862E8D56EEA8F0290F5E37AE832C64A7DE394797BE7FCD38C23CE011A15291 ====

Содержание индексной карты (.CUE)

REM DISCID A208DB0C
REM COMMENT "ExactAudioCopy v1.1"
PERFORMER "Various Artists"
TITLE "Классика в современной обработке"
FILE "Various Artists - Классика в современной обработке.flac" WAVE
TRACK 01 AUDIO
TITLE "«Аллилуйя» из оратории «Мессия»"
PERFORMER "Георг Фридрих Гендель"
FLAGS DCP
INDEX 01 00:00:00
TRACK 02 AUDIO
TITLE "«Улетай на крыльях ветра» из оперы «Князь Игорь»"
PERFORMER "Александр Бородин"
FLAGS DCP
INDEX 00 03:56:08
INDEX 01 03:58:08
TRACK 03 AUDIO
TITLE "Симфония №40, Часть I"
PERFORMER "Вольфганг Амадей Моцарт"
FLAGS DCP
INDEX 00 07:24:01
INDEX 01 07:26:01
TRACK 04 AUDIO
TITLE "Аве Мария"
PERFORMER "Иоганн Себастьян Бах"
FLAGS DCP
INDEX 00 10:41:46
INDEX 01 10:43:46
TRACK 05 AUDIO
TITLE "Ария Кармен из оперы «Кармен»"
PERFORMER "Жорж Бизе"
FLAGS DCP
INDEX 00 13:09:52
INDEX 01 13:11:52
TRACK 06 AUDIO
TITLE "Соната для фортепиано №11, часть 3 «Турецкий марш»"
PERFORMER "Вольфганг Амадей Моцарт"
FLAGS DCP
INDEX 00 17:28:49
INDEX 01 17:30:49
TRACK 07 AUDIO
TITLE "Вокализ (Соч. 34, №14)"
PERFORMER "Сергей Рахманинов"
FLAGS DCP
INDEX 00 20:59:64
INDEX 01 21:01:64
TRACK 08 AUDIO
TITLE "Симфония №9, финал «Оды к радости»"
PERFORMER "Людвиг Ван Бетховен"
FLAGS DCP
INDEX 00 24:08:27
INDEX 01 24:10:27
TRACK 09 AUDIO
TITLE "«Лебедь» из «Карнавала животных»"
PERFORMER "Шарль Камиль Сен-Санс"
FLAGS DCP
INDEX 00 27:05:69
INDEX 01 27:07:69
TRACK 10 AUDIO
TITLE "«В пещере горного короля»"
PERFORMER "Эдвард Григ"
FLAGS DCP
INDEX 00 29:34:44
INDEX 01 29:36:44
TRACK 11 AUDIO
TITLE "Прелюдия ми минор (Соч. 28, №4)"
PERFORMER "Фредерик Шопен "
FLAGS DCP
INDEX 00 32:26:35
INDEX 01 32:28:35
TRACK 12 AUDIO
TITLE "Менуэт"
PERFORMER "Луиджи Керубини"
FLAGS DCP
INDEX 00 34:42:37
INDEX 01 34:44:37



Показать сообщения:    

Текущее время: 03-Дек 01:18

Часовой пояс: UTC + 3


Вы не можете начинать темы
Вы не можете отвечать на сообщения
Вы не можете редактировать свои сообщения
Вы не можете удалять свои сообщения
Вы не можете голосовать в опросах
Вы не можете прикреплять файлы к сообщениям
Вы не можете скачивать файлы