(Classical/Operetta) Strauss II - Eine Nacht in Venedig (Streich, Gedda, Gorner, Litz, Curzi, Rothenberger, Prey, Chor des Bayerischen Rundfunks, Symphonie-Orchester Graunke, Allers) / Штраус-сын - Ночь в Венеции - 1988, FLAC (tracks+.cue) lossless


 

[Цитировать]

Johann Strauss, Jr. - Eine Nacht in Venedig / Иоганн Штраус-сын - Ночь в Венеции
Жанр: Classical / Operetta
Страна-производитель диска: Germany
Год издания диска: 1988
Издатель (лейбл): EMI Electrola
Дата записи: 09/1967
Студия: Burgerbrau, Munich, Germany
Аудиокодек: FLAC
Тип рипа: tracks+.cue
Битрейт аудио: lossless
Источник: скачано с
сайт-источник/ник/другое: what.cd
Наличие сканов в содержимом раздачи: нет
Исполнители:
Nicolai Gedda (Tenor) - Guido, Herzog von Urbino
Christian Oppelberg (Baritone) - Bartolomeo Delacqua
Franz Weiß (Spoken Vocals) - Stefano Barbaruccio
Theo Nicolai (Bass) - Giorgio Testaccio
Marjorie Heistermann (Soprano) - Barbara Delacqua
Gisela Litz (Mezzo Soprano) - Agricola
Anneliese Rothenberger (Soprano) - Constantia
Rita Streich (Soprano) - Annina
Cesare Curzi (Tenor) - Caramello
Hans Günther Grimm (Bass) - Pappacoda
Christine Görner (Soprano) - Ciboletta
Hermann Prey (Baritone) - Enrico Piselli
Karl Kreile (Spoken Vocals) - Centurio
Chor des Bayerischen Rundfunks, Wolfgang Schubert (chorus master)
Symphonie-Orchester Graunke, conducted by Franz Allers

Треклист:

CD1:
01. Ouvertüre (Orchester)
Erster akt
02. Nr.1 - Introduktion & Couplet: Wenn vom Lido sacht wieder Kühlung weht (Pappacoda - Chor)
03. Dialog
04. Einlage: In Italiens heißem Sonnenland (Enrico)
[Spanisches Tanzlied Aus "casanova" V. Johann Strauß, Sohn, Arr. Ralph Benatzky/T.: Rudolf Schanzer, Ernst Welisch/Verl.: Joseph Weinberger]
05. Dialog
06. Nr. 3 - Duettino: 'S ist wahr, ich bin nicht allzu klug (Ciboletta - Pappacoda)
07. Nr. 2 - Auftrittslied: Frutti di mare (Annina)
08. Dialog
09. Nr. 4 - Auftrittslied: Eviva, Caramello (Caramello - Chor)
10. Dialog
11. Nr. 5 - Duett: Annina! - Caramello! Du fliegest nicht in meinen Arm? (Caramello - Annina)
12. Dialog
13. Nr. 6 - Quartett: Alles maskiert (Annina - Ciboletta - Caramello - Pappacoda)
14. Nr. 6,5 - Aufrtittslied: Sei mir gegrüßt, du holdes Venetia (Herzog)
[Arr. Erich Wolfgang Korngold/T. Arr.: Ernst Marischka]
15. Dialog
16. Nr. 7 - Finale I: Hier ward es stille - Der Mond hat schwere Klag' erhob'n (Herzog - Barbara - Annina - Pappacoda - Ciboletta - Caramello - Delacqua - Chor)
17. Komm in die Gondel (Herzog - Barbara - Annina - Pappacoda - Ciboletta - Caramello - Delacqua - Chor)
18. Komm nur, liebes Kind - Mit der Würde (Herzog - Barbara - Annina - Pappacoda - Ciboletta - Caramello - Delacqua - Chor)
19. Dialog & Einlage: Stadt der Liebe, Stadt der Träume (Enrico)
[Aus "Casanova" V. Johann Strauß, Sohn, Arr. Ralph Benatzky/T.: Rudolf Schanzer, Ernst Welisch/Verl.: Joseph Weinberger]
CD2:
Zweiter akt
01. Introduktion & Dialog & Ich hab' dich lieb (Herzog - Constantia)
[Einlage Aus "casanova" V. Johann Strauß, Sohn/T.: Rudolf Schanzer, Ernst Welisch/Verl.: Müller-Blattau]
02. Dialog
03. Nr. 8 - Couplet: Venedigs Frauen herzuführen (Agricola - Herzog - Chor)
04. Dialog
05. Nr. 9 - Lied: Treu sein, das liegt mir nicht (Herzog)
[Arr. Erich Wolfgang Korngold/T. Arr.: Ernst Marischka]
06. Dialog
07. Nr. 10a - Duett: Hör mich, Annina (Caramello - Annina)
08. Dialog
09. Nr. 10b - Duett: Sie sagten meinem Liebesfleh'n (Herzog - Annina)
10. Dialog
11. Einlage: Sul mare lucica (Constantia)
[Aus "Casanova" V. Johann Strauß, Sohn, Arr. Will Mattes/T.: Rudolf Schanzer, Ernst Welisch/Verl.: Müller-Blattau]
12. Dialog
13. Nr. 11 - Ensemble & Couplet: Solch ein Wirtshaus lob' ich mir (Caramello - Pappacoda - Chor)
14. Dialog
15. Nr. 12 - Quartett: Ninana, Ninana, hier will ich singen (Annina - Ciboletta - Herzog - Delacqua)
16. Dialog
17. Nr. 13 - Finale II: Lasset die Andern Tanzen da - Jetzt ist Zeit zur Lustbarkeit - Horch von San Marco der Glocken Geläut (Herzog - Caramello - Annina - Ciboletta - Pappacoda - Centurio - Chor)
Dritter akt
18. Nr. 14 - Introduktion & Taubenszene: Carneval ruft euch zum Ball - Die Tauben von San Marco (Annina - Ciboletta - Herzog - Chor)
19. Nr. 15 - Lagunen-Walzer: Ach, wie so herrlich zu schau'n (Herzog)
20. Dialog
21. Nr. 16 - Duettino: Take, take, tak, Erst hack' ich fein (Ciboletta Pappacoda)
22. Dialog
23. Einlage: Eviva Carnevale - Der Karneval heut' die Stunde regiert (Enrico - Chor)
[Aus "karneval In Rom" V. Johann Strauß, Sohn, Arr. Franz Marszalek/T. Arr. Eugen Rex/Verl.: Joseph Weinberger]
24. Dialog & Nr. 17 - Finale III: Alles maskiert, Alles maskiert (Annina - Ciboletta - Caramello - Pappacoda - Herzog - Enrico - Chor)

Лог создания рипаCD1

Exact Audio Copy V0.99 prebeta 4 from 23. January 2008
EAC extraction logfile from 2. April 2009, 21:22
Johann Strauss jr (1825-1899), NIcolai Gedda / Eine nacht in Venedig
Used drive : TOSHIBA DVD-ROM SD-R2412 Adapter: 1 ID: 0
Read mode : Secure
Utilize accurate stream : Yes
Defeat audio cache : Yes
Make use of C2 pointers : No
Read offset correction : 116
Overread into Lead-In and Lead-Out : No
Fill up missing offset samples with silence : Yes
Delete leading and trailing silent blocks : No
Null samples used in CRC calculations : Yes
Used interface : Native Win32 interface for Win NT & 2000
Gap handling : Appended to previous track
Used output format : User Defined Encoder
Selected bitrate : 768 kBit/s
Quality : High
Add ID3 tag : No
Command line compressor : C:\Program Files\Exact Audio Copy\FLAC\FLAC.EXE
Additional command line options : -8 -V -T "ARTIST=%a" -T "TITLE=%t" -T "ALBUM=%g" -T "DATE=%y" -T "TRACKNUMBER=%n" -T "GENRE=%m" -T "COMMENT=EAC FLAC -8" %s
TOC of the extracted CD
Track | Start | Length | Start sector | End sector
---------------------------------------------------------
1 | 0:00.00 | 6:10.42 | 0 | 27791
2 | 6:10.42 | 2:25.20 | 27792 | 38686
3 | 8:35.62 | 0:20.68 | 38687 | 40254
4 | 8:56.55 | 2:11.57 | 40255 | 50136
5 | 11:08.37 | 0:57.70 | 50137 | 54481
6 | 12:06.32 | 1:44.15 | 54482 | 62296
7 | 13:50.47 | 2:51.58 | 62297 | 75179
8 | 16:42.30 | 1:27.10 | 75180 | 81714
9 | 18:09.40 | 1:59.07 | 81715 | 90646
10 | 20:08.47 | 1:12.58 | 90647 | 96104
11 | 21:21.30 | 3:17.27 | 96105 | 110906
12 | 24:38.57 | 0:32.28 | 110907 | 113334
13 | 25:11.10 | 2:20.67 | 113335 | 123901
14 | 27:32.02 | 3:25.28 | 123902 | 139304
15 | 30:57.30 | 1:27.67 | 139305 | 145896
16 | 32:25.22 | 4:13.23 | 145897 | 164894
17 | 36:38.45 | 2:09.57 | 164895 | 174626
18 | 38:48.27 | 6:57.10 | 174627 | 205911
19 | 45:45.37 | 2:09.38 | 205912 | 215624
Track 1
Filename C:\ripped\01 - Ouverture.wav
Pre-gap length 0:00:02.00
Peak level 93.6 %
Track quality 99.9 %
Test CRC 11564171
Copy CRC 11564171
Track not present in AccurateRip database
Copy OK
Track 2
Filename C:\ripped\02 - Act 1 Wenn vom Lido sacht.wav
Pre-gap length 0:00:03.31
Peak level 74.1 %
Track quality 100.0 %
Test CRC AE0BEB1D
Copy CRC AE0BEB1D
Track not present in AccurateRip database
Copy OK
Track 3
Filename C:\ripped\03 - Act 1 Dialog.wav
Peak level 55.0 %
Track quality 99.4 %
Test CRC 6AE7303B
Copy CRC 6AE7303B
Track not present in AccurateRip database
Copy OK
Track 4
Filename C:\ripped\04 - Act 1 In Italiens heissem Sonnenland.wav
Peak level 98.4 %
Track quality 100.0 %
Test CRC 98A15C05
Copy CRC 98A15C05
Track not present in AccurateRip database
Copy OK
Track 5
Filename C:\ripped\05 - Act 1 Dialog.wav
Peak level 92.8 %
Track quality 100.0 %
Test CRC 2C9E58D3
Copy CRC 2C9E58D3
Track not present in AccurateRip database
Copy OK
Track 6
Filename C:\ripped\06 - Act 1 's ist wahr, ich bin nicht allzu klug.wav
Peak level 80.0 %
Track quality 100.0 %
Test CRC 34818BD7
Copy CRC 34818BD7
Track not present in AccurateRip database
Copy OK
Track 7
Filename C:\ripped\07 - Act I Frutti di Mare.wav
Peak level 79.2 %
Track quality 100.0 %
Test CRC 3C5EA856
Copy CRC 3C5EA856
Track not present in AccurateRip database
Copy OK
Track 8
Filename C:\ripped\08 - Act Dialog.wav
Peak level 76.8 %
Track quality 100.0 %
Test CRC BB499F4B
Copy CRC BB499F4B
Track not present in AccurateRip database
Copy OK
Track 9
Filename C:\ripped\09 - Act I Evviva, Caramelo.wav
Pre-gap length 0:00:00.02
Peak level 82.8 %
Track quality 100.0 %
Test CRC BF3D02AC
Copy CRC BF3D02AC
Track not present in AccurateRip database
Copy OK
Track 10
Filename C:\ripped\10 - Act I Dialog.wav
Peak level 76.0 %
Track quality 100.0 %
Test CRC 82933253
Copy CRC 82933253
Track not present in AccurateRip database
Copy OK
Track 11
Filename C:\ripped\11 - Act I Annina! Caramello! Du fliegest nicht in meinen Arm.wav
Peak level 77.7 %
Track quality 100.0 %
Test CRC 23CF5083
Copy CRC 23CF5083
Track not present in AccurateRip database
Copy OK
Track 12
Filename C:\ripped\12 - Act I Dialog.wav
Peak level 50.2 %
Track quality 100.0 %
Test CRC 6AF742BD
Copy CRC 6AF742BD
Track not present in AccurateRip database
Copy OK
Track 13
Filename C:\ripped\13 - Act I Alles maskiert.wav
Peak level 85.6 %
Track quality 100.0 %
Test CRC 0EC5C8A8
Copy CRC 0EC5C8A8
Track not present in AccurateRip database
Copy OK
Track 14
Filename C:\ripped\14 - Act I sei mir gegrusst, du holde Venetia.wav
Peak level 74.7 %
Track quality 100.0 %
Test CRC A0DF27A0
Copy CRC A0DF27A0
Track not present in AccurateRip database
Copy OK
Track 15
Filename C:\ripped\15 - Act I Dialog.wav
Peak level 52.2 %
Track quality 100.0 %
Test CRC 75FC6070
Copy CRC 75FC6070
Track not present in AccurateRip database
Copy OK
Track 16
Filename C:\ripped\16 - Act I Hier ward es stille.wav
Peak level 71.3 %
Track quality 100.0 %
Test CRC D2005327
Copy CRC D2005327
Track not present in AccurateRip database
Copy OK
Track 17
Filename C:\ripped\17 - Act I Komm in die Gondel.wav
Peak level 68.7 %
Track quality 100.0 %
Test CRC FADF9AA3
Copy CRC FADF9AA3
Track not present in AccurateRip database
Copy OK
Track 18
Filename C:\ripped\18 - Act I Komm nur, liebes Kind.wav
Peak level 97.6 %
Track quality 100.0 %
Test CRC 8865EA6F
Copy CRC 8865EA6F
Track not present in AccurateRip database
Copy OK
Track 19
Filename C:\ripped\19 - Act I Stadt der Liebe, Stadt der Traume.wav
Peak level 80.3 %
Track quality 99.9 %
Test CRC 4B49C79E
Copy CRC 4B49C79E
Track not present in AccurateRip database
Copy OK
None of the tracks are present in the AccurateRip database
No errors occurred
End of status report

CD2

Exact Audio Copy V0.99 prebeta 4 from 23. January 2008
EAC extraction logfile from 2. April 2009, 22:20
Johann Strauss jr (1825-1899), NIcolai Gedda / Eine nacht in Venedig
Used drive : TOSHIBA DVD-ROM SD-R2412 Adapter: 1 ID: 0
Read mode : Secure
Utilize accurate stream : Yes
Defeat audio cache : Yes
Make use of C2 pointers : No
Read offset correction : 116
Overread into Lead-In and Lead-Out : No
Fill up missing offset samples with silence : Yes
Delete leading and trailing silent blocks : No
Null samples used in CRC calculations : Yes
Used interface : Native Win32 interface for Win NT & 2000
Gap handling : Appended to previous track
Used output format : User Defined Encoder
Selected bitrate : 768 kBit/s
Quality : High
Add ID3 tag : No
Command line compressor : C:\Program Files\Exact Audio Copy\FLAC\FLAC.EXE
Additional command line options : -8 -V -T "ARTIST=%a" -T "TITLE=%t" -T "ALBUM=%g" -T "DATE=%y" -T "TRACKNUMBER=%n" -T "GENRE=%m" -T "COMMENT=EAC FLAC -8" %s
TOC of the extracted CD
Track | Start | Length | Start sector | End sector
---------------------------------------------------------
1 | 0:00.00 | 4:38.37 | 0 | 20886
2 | 4:38.37 | 0:49.28 | 20887 | 24589
3 | 5:27.65 | 1:22.20 | 24590 | 30759
4 | 6:50.10 | 0:15.47 | 30760 | 31931
5 | 7:05.57 | 2:12.10 | 31932 | 41841
6 | 9:17.67 | 0:41.20 | 41842 | 44936
7 | 9:59.12 | 1:37.55 | 44937 | 52266
8 | 11:36.67 | 0:27.58 | 52267 | 54349
9 | 12:04.50 | 1:57.40 | 54350 | 63164
10 | 14:02.15 | 0:29.35 | 63165 | 65374
11 | 14:31.50 | 2:19.20 | 65375 | 75819
12 | 16:50.70 | 0:13.35 | 75820 | 76829
13 | 17:04.30 | 4:01.60 | 76830 | 94964
14 | 21:06.15 | 0:41.35 | 94965 | 98074
15 | 21:47.50 | 2:29.12 | 98075 | 109261
16 | 24:16.62 | 0:53.15 | 109262 | 113251
17 | 25:10.02 | 6:44.08 | 113252 | 143559
18 | 31:54.10 | 3:45.52 | 143560 | 160486
19 | 35:39.62 | 3:55.35 | 160487 | 178146
20 | 39:35.22 | 0:26.55 | 178147 | 180151
21 | 40:02.02 | 2:45.45 | 180152 | 192571
22 | 42:47.47 | 0:33.05 | 192572 | 195051
23 | 43:20.52 | 1:57.25 | 195052 | 203851
24 | 45:18.02 | 2:09.13 | 203852 | 213539
Track 1
Filename C:\ripped\01 - Act II Introduktion.wav
Pre-gap length 0:00:02.00
Peak level 62.8 %
Track quality 100.0 %
Test CRC 48E01BA6
Copy CRC 48E01BA6
Track not present in AccurateRip database
Copy OK
Track 2
Filename C:\ripped\02 - Act II Dialog01.wav
Pre-gap length 0:00:00.02
Peak level 59.0 %
Track quality 100.0 %
Test CRC 2CEB0774
Copy CRC 2CEB0774
Track not present in AccurateRip database
Copy OK
Track 3
Filename C:\ripped\03 - Act II Venedigs Frauen herzufuhren.wav
Pre-gap length 0:00:00.03
Peak level 87.5 %
Track quality 100.0 %
Test CRC 3D2315DA
Copy CRC 3D2315DA
Track not present in AccurateRip database
Copy OK
Track 4
Filename C:\ripped\04 - Act II Dialog02.wav
Pre-gap length 0:00:00.03
Peak level 45.1 %
Track quality 100.0 %
Test CRC FE0043D7
Copy CRC FE0043D7
Track not present in AccurateRip database
Copy OK
Track 5
Filename C:\ripped\05 - Act II Treu sein, das liegt mir nicht.wav
Pre-gap length 0:00:00.02
Peak level 81.0 %
Track quality 100.0 %
Test CRC A4389D75
Copy CRC A4389D75
Track not present in AccurateRip database
Copy OK
Track 6
Filename C:\ripped\06 - Act II Dialog03.wav
Pre-gap length 0:00:00.02
Peak level 49.6 %
Track quality 100.0 %
Test CRC 13A85C7A
Copy CRC 13A85C7A
Track not present in AccurateRip database
Copy OK
Track 7
Filename C:\ripped\07 - Act II Hor mich, Annina.wav
Pre-gap length 0:00:00.02
Peak level 77.9 %
Track quality 100.0 %
Test CRC 76E6E2DA
Copy CRC 76E6E2DA
Track not present in AccurateRip database
Copy OK
Track 8
Filename C:\ripped\08 - Act II Dialog04.wav
Pre-gap length 0:00:00.02
Peak level 55.8 %
Track quality 100.0 %
Test CRC FDCC2416
Copy CRC FDCC2416
Track not present in AccurateRip database
Copy OK
Track 9
Filename C:\ripped\09 - Act II Sie sagten meinem Liebesflehn.wav
Pre-gap length 0:00:00.03
Peak level 68.8 %
Track quality 99.9 %
Test CRC 4E1435C9
Copy CRC 4E1435C9
Track not present in AccurateRip database
Copy OK
Track 10
Filename C:\ripped\10 - Act II Dialog05.wav
Pre-gap length 0:00:00.03
Peak level 44.2 %
Track quality 100.0 %
Test CRC ADF9EED6
Copy CRC ADF9EED6
Track not present in AccurateRip database
Copy OK
Track 11
Filename C:\ripped\11 - Act II Sul mare lucia.wav
Pre-gap length 0:00:00.03
Peak level 56.7 %
Track quality 100.0 %
Test CRC 7253E69A
Copy CRC 7253E69A
Track not present in AccurateRip database
Copy OK
Track 12
Filename C:\ripped\12 - Act II Dialog06.wav
Pre-gap length 0:00:00.03
Peak level 34.4 %
Track quality 100.0 %
Test CRC 701985DC
Copy CRC 701985DC
Track not present in AccurateRip database
Copy OK
Track 13
Filename C:\ripped\13 - Act II Solch ein Wirtshauslob' ich mir.wav
Pre-gap length 0:00:00.03
Peak level 84.8 %
Track quality 100.0 %
Test CRC C7F734A0
Copy CRC C7F734A0
Track not present in AccurateRip database
Copy OK
Track 14
Filename C:\ripped\14 - Act II Dialog07.wav
Pre-gap length 0:00:00.03
Peak level 66.0 %
Track quality 100.0 %
Test CRC 7B84093E
Copy CRC 7B84093E
Track not present in AccurateRip database
Copy OK
Track 15
Filename C:\ripped\15 - Act II Ninana, Ninana, hier will ich singen.wav
Pre-gap length 0:00:00.03
Peak level 72.0 %
Track quality 100.0 %
Test CRC 8DD776AA
Copy CRC 8DD776AA
Track not present in AccurateRip database
Copy OK
Track 16
Filename C:\ripped\16 - Act II Dialog08.wav
Pre-gap length 0:00:00.02
Peak level 74.8 %
Track quality 100.0 %
Test CRC 3CBE5592
Copy CRC 3CBE5592
Track not present in AccurateRip database
Copy OK
Track 17
Filename C:\ripped\17 - Act II Lasst die Andern tanzen da.wav
Pre-gap length 0:00:00.02
Peak level 90.3 %
Track quality 99.9 %
Test CRC 17295B72
Copy CRC 17295B72
Track not present in AccurateRip database
Copy OK
Track 18
Filename C:\ripped\18 - Act III Carneval ruft euch zum Ball.wav
Pre-gap length 0:00:02.68
Peak level 84.3 %
Track quality 100.0 %
Test CRC 7223B891
Copy CRC 7223B891
Track not present in AccurateRip database
Copy OK
Track 19
Filename C:\ripped\19 - Act III Ach, wie so herrlich zu schauen.wav
Pre-gap length 0:00:00.02
Peak level 59.3 %
Track quality 100.0 %
Test CRC 37BE824A
Copy CRC 37BE824A
Track not present in AccurateRip database
Copy OK
Track 20
Filename C:\ripped\20 - Act III Dialog01.wav
Pre-gap length 0:00:00.02
Peak level 49.1 %
Track quality 100.0 %
Test CRC C2CE5EB3
Copy CRC C2CE5EB3
Track not present in AccurateRip database
Copy OK
Track 21
Filename C:\ripped\21 - Act III Take, take tak erst hack' ich fein.wav
Pre-gap length 0:00:00.02
Peak level 82.9 %
Track quality 100.0 %
Test CRC 904F08D8
Copy CRC 904F08D8
Track not present in AccurateRip database
Copy OK
Track 22
Filename C:\ripped\22 - Act III Dialog02.wav
Pre-gap length 0:00:00.02
Peak level 70.7 %
Track quality 100.0 %
Test CRC 02DDD01F
Copy CRC 02DDD01F
Track not present in AccurateRip database
Copy OK
Track 23
Filename C:\ripped\23 - Act III Evviva Carnevale.wav
Pre-gap length 0:00:00.02
Peak level 83.7 %
Track quality 100.0 %
Test CRC 974D9061
Copy CRC 974D9061
Track not present in AccurateRip database
Copy OK
Track 24
Filename C:\ripped\24 - Act III Alles maskiert, alles maskiert.wav
Pre-gap length 0:00:00.02
Peak level 89.3 %
Track quality 99.9 %
Test CRC 23455C2B
Copy CRC 23455C2B
Track not present in AccurateRip database
Copy OK
None of the tracks are present in the AccurateRip database
No errors occurred
End of status report

Содержание индексной карты (.CUE)CD1

REM GENRE Operette
REM DATE 1968
REM DISCID EB0B3B13
REM COMMENT "ExactAudioCopy v0.99pb4"
PERFORMER "Johann Strauss jr (1825-1899), NIcolai Gedda"
TITLE "Eine nacht in Venedig"
FILE "01 - Ouverture.wav" WAVE
TRACK 01 AUDIO
TITLE "Ouverture"
PERFORMER "Johann Strauss jr (1825-1899), NIcolai Gedda"
INDEX 01 00:00:00
TRACK 02 AUDIO
TITLE "Act 1 Wenn vom Lido sacht"
PERFORMER "Johann Strauss jr (1825-1899), NIcolai Gedda"
INDEX 00 06:07:11
FILE "02 - Act 1 Wenn vom Lido sacht.wav" WAVE
INDEX 01 00:00:00
FILE "03 - Act 1 Dialog.wav" WAVE
TRACK 03 AUDIO
TITLE "Act 1 Dialog"
PERFORMER "Johann Strauss jr (1825-1899), NIcolai Gedda"
INDEX 01 00:00:00
FILE "04 - Act 1 In Italiens heissem Sonnenland.wav" WAVE
TRACK 04 AUDIO
TITLE "Act 1 In Italiens heissem Sonnenland"
PERFORMER "Johann Strauss jr (1825-1899), NIcolai Gedda"
INDEX 01 00:00:00
FILE "05 - Act 1 Dialog.wav" WAVE
TRACK 05 AUDIO
TITLE "Act 1 Dialog"
PERFORMER "Johann Strauss jr (1825-1899), NIcolai Gedda"
INDEX 01 00:00:00
FILE "06 - Act 1 's ist wahr, ich bin nicht allzu klug.wav" WAVE
TRACK 06 AUDIO
TITLE "Act 1 's ist wahr, ich bin nicht allzu klug"
PERFORMER "Johann Strauss jr (1825-1899), NIcolai Gedda"
INDEX 01 00:00:00
FILE "07 - Act I Frutti di Mare.wav" WAVE
TRACK 07 AUDIO
TITLE "Act I Frutti di Mare"
PERFORMER "Johann Strauss jr (1825-1899), NIcolai Gedda"
INDEX 01 00:00:00
FILE "08 - Act Dialog.wav" WAVE
TRACK 08 AUDIO
TITLE "Act Dialog"
PERFORMER "Johann Strauss jr (1825-1899), NIcolai Gedda"
INDEX 01 00:00:00
TRACK 09 AUDIO
TITLE "Act I Evviva, Caramelo"
PERFORMER "Johann Strauss jr (1825-1899), NIcolai Gedda"
INDEX 00 01:27:08
FILE "09 - Act I Evviva, Caramelo.wav" WAVE
INDEX 01 00:00:00
FILE "10 - Act I Dialog.wav" WAVE
TRACK 10 AUDIO
TITLE "Act I Dialog"
PERFORMER "Johann Strauss jr (1825-1899), NIcolai Gedda"
INDEX 01 00:00:00
FILE "11 - Act I Annina! Caramello! Du fliegest nicht in meinen Arm.wav" WAVE
TRACK 11 AUDIO
TITLE "Act I Annina! Caramello! Du fliegest nicht in meinen Arm "
PERFORMER "Johann Strauss jr (1825-1899), NIcolai Gedda"
INDEX 01 00:00:00
FILE "12 - Act I Dialog.wav" WAVE
TRACK 12 AUDIO
TITLE "Act I Dialog"
PERFORMER "Johann Strauss jr (1825-1899), NIcolai Gedda"
INDEX 01 00:00:00
FILE "13 - Act I Alles maskiert.wav" WAVE
TRACK 13 AUDIO
TITLE "Act I Alles maskiert"
PERFORMER "Johann Strauss jr (1825-1899), NIcolai Gedda"
INDEX 01 00:00:00
FILE "14 - Act I sei mir gegrusst, du holde Venetia.wav" WAVE
TRACK 14 AUDIO
TITLE "Act I sei mir gegrusst, du holde Venetia"
PERFORMER "Johann Strauss jr (1825-1899), NIcolai Gedda"
INDEX 01 00:00:00
FILE "15 - Act I Dialog.wav" WAVE
TRACK 15 AUDIO
TITLE "Act I Dialog"
PERFORMER "Johann Strauss jr (1825-1899), NIcolai Gedda"
INDEX 01 00:00:00
FILE "16 - Act I Hier ward es stille.wav" WAVE
TRACK 16 AUDIO
TITLE "Act I Hier ward es stille"
PERFORMER "Johann Strauss jr (1825-1899), NIcolai Gedda"
INDEX 01 00:00:00
FILE "17 - Act I Komm in die Gondel.wav" WAVE
TRACK 17 AUDIO
TITLE "Act I Komm in die Gondel"
PERFORMER "Johann Strauss jr (1825-1899), NIcolai Gedda"
INDEX 01 00:00:00
FILE "18 - Act I Komm nur, liebes Kind.wav" WAVE
TRACK 18 AUDIO
TITLE "Act I Komm nur, liebes Kind"
PERFORMER "Johann Strauss jr (1825-1899), NIcolai Gedda"
INDEX 01 00:00:00
FILE "19 - Act I Stadt der Liebe, Stadt der Traume.wav" WAVE
TRACK 19 AUDIO
TITLE "Act I Stadt der Liebe, Stadt der Traume"
PERFORMER "Johann Strauss jr (1825-1899), NIcolai Gedda"
INDEX 01 00:00:00

CD2

REM GENRE Operette
REM DATE 1968
REM DISCID 380B1F18
REM COMMENT "ExactAudioCopy v0.99pb4"
PERFORMER "Johann Strauss jr (1825-1899), NIcolai Gedda"
TITLE "Eine nacht in Venedig"
FILE "01 - Act II Introduktion.wav" WAVE
TRACK 01 AUDIO
TITLE "Act II Introduktion"
PERFORMER "Johann Strauss jr (1825-1899), NIcolai Gedda"
INDEX 01 00:00:00
TRACK 02 AUDIO
TITLE "Act II Dialog01"
PERFORMER "Johann Strauss jr (1825-1899), NIcolai Gedda"
INDEX 00 04:38:35
FILE "02 - Act II Dialog01.wav" WAVE
INDEX 01 00:00:00
TRACK 03 AUDIO
TITLE "Act II Venedigs Frauen herzufuhren"
PERFORMER "Johann Strauss jr (1825-1899), NIcolai Gedda"
INDEX 00 00:49:25
FILE "03 - Act II Venedigs Frauen herzufuhren.wav" WAVE
INDEX 01 00:00:00
TRACK 04 AUDIO
TITLE "Act II Dialog02"
PERFORMER "Johann Strauss jr (1825-1899), NIcolai Gedda"
INDEX 00 01:22:17
FILE "04 - Act II Dialog02.wav" WAVE
INDEX 01 00:00:00
TRACK 05 AUDIO
TITLE "Act II Treu sein, das liegt mir nicht"
PERFORMER "Johann Strauss jr (1825-1899), NIcolai Gedda"
INDEX 00 00:15:45
FILE "05 - Act II Treu sein, das liegt mir nicht.wav" WAVE
INDEX 01 00:00:00
TRACK 06 AUDIO
TITLE "Act II Dialog03"
PERFORMER "Johann Strauss jr (1825-1899), NIcolai Gedda"
INDEX 00 02:12:08
FILE "06 - Act II Dialog03.wav" WAVE
INDEX 01 00:00:00
TRACK 07 AUDIO
TITLE "Act II Hor mich, Annina"
PERFORMER "Johann Strauss jr (1825-1899), NIcolai Gedda"
INDEX 00 00:41:18
FILE "07 - Act II Hor mich, Annina.wav" WAVE
INDEX 01 00:00:00
TRACK 08 AUDIO
TITLE "Act II Dialog04"
PERFORMER "Johann Strauss jr (1825-1899), NIcolai Gedda"
INDEX 00 01:37:53
FILE "08 - Act II Dialog04.wav" WAVE
INDEX 01 00:00:00
TRACK 09 AUDIO
TITLE "Act II Sie sagten meinem Liebesflehn"
PERFORMER "Johann Strauss jr (1825-1899), NIcolai Gedda"
INDEX 00 00:27:55
FILE "09 - Act II Sie sagten meinem Liebesflehn.wav" WAVE
INDEX 01 00:00:00
TRACK 10 AUDIO
TITLE "Act II Dialog05"
PERFORMER "Johann Strauss jr (1825-1899), NIcolai Gedda"
INDEX 00 01:57:37
FILE "10 - Act II Dialog05.wav" WAVE
INDEX 01 00:00:00
TRACK 11 AUDIO
TITLE "Act II Sul mare lucia"
PERFORMER "Johann Strauss jr (1825-1899), NIcolai Gedda"
INDEX 00 00:29:32
FILE "11 - Act II Sul mare lucia.wav" WAVE
INDEX 01 00:00:00
TRACK 12 AUDIO
TITLE "Act II Dialog06"
PERFORMER "Johann Strauss jr (1825-1899), NIcolai Gedda"
INDEX 00 02:19:17
FILE "12 - Act II Dialog06.wav" WAVE
INDEX 01 00:00:00
TRACK 13 AUDIO
TITLE "Act II Solch ein Wirtshauslob' ich mir"
PERFORMER "Johann Strauss jr (1825-1899), NIcolai Gedda"
INDEX 00 00:13:32
FILE "13 - Act II Solch ein Wirtshauslob' ich mir.wav" WAVE
INDEX 01 00:00:00
TRACK 14 AUDIO
TITLE "Act II Dialog07"
PERFORMER "Johann Strauss jr (1825-1899), NIcolai Gedda"
INDEX 00 04:01:57
FILE "14 - Act II Dialog07.wav" WAVE
INDEX 01 00:00:00
TRACK 15 AUDIO
TITLE "Act II Ninana, Ninana, hier will ich singen"
PERFORMER "Johann Strauss jr (1825-1899), NIcolai Gedda"
INDEX 00 00:41:32
FILE "15 - Act II Ninana, Ninana, hier will ich singen.wav" WAVE
INDEX 01 00:00:00
TRACK 16 AUDIO
TITLE "Act II Dialog08"
PERFORMER "Johann Strauss jr (1825-1899), NIcolai Gedda"
INDEX 00 02:29:10
FILE "16 - Act II Dialog08.wav" WAVE
INDEX 01 00:00:00
TRACK 17 AUDIO
TITLE "Act II Lasst die Andern tanzen da"
PERFORMER "Johann Strauss jr (1825-1899), NIcolai Gedda"
INDEX 00 00:53:13
FILE "17 - Act II Lasst die Andern tanzen da.wav" WAVE
INDEX 01 00:00:00
TRACK 18 AUDIO
TITLE "Act III Carneval ruft euch zum Ball"
PERFORMER "Johann Strauss jr (1825-1899), NIcolai Gedda"
INDEX 00 06:41:15
FILE "18 - Act III Carneval ruft euch zum Ball.wav" WAVE
INDEX 01 00:00:00
TRACK 19 AUDIO
TITLE "Act III Ach, wie so herrlich zu schauen"
PERFORMER "Johann Strauss jr (1825-1899), NIcolai Gedda"
INDEX 00 03:45:50
FILE "19 - Act III Ach, wie so herrlich zu schauen.wav" WAVE
INDEX 01 00:00:00
TRACK 20 AUDIO
TITLE "Act III Dialog01"
PERFORMER "Johann Strauss jr (1825-1899), NIcolai Gedda"
INDEX 00 03:55:33
FILE "20 - Act III Dialog01.wav" WAVE
INDEX 01 00:00:00
TRACK 21 AUDIO
TITLE "Act III Take, take tak erst hack' ich fein"
PERFORMER "Johann Strauss jr (1825-1899), NIcolai Gedda"
INDEX 00 00:26:53
FILE "21 - Act III Take, take tak erst hack' ich fein.wav" WAVE
INDEX 01 00:00:00
TRACK 22 AUDIO
TITLE "Act III Dialog02"
PERFORMER "Johann Strauss jr (1825-1899), NIcolai Gedda"
INDEX 00 02:45:43
FILE "22 - Act III Dialog02.wav" WAVE
INDEX 01 00:00:00
TRACK 23 AUDIO
TITLE "Act III Evviva Carnevale"
PERFORMER "Johann Strauss jr (1825-1899), NIcolai Gedda"
INDEX 00 00:33:03
FILE "23 - Act III Evviva Carnevale.wav" WAVE
INDEX 01 00:00:00
TRACK 24 AUDIO
TITLE "Act III Alles maskiert, alles maskiert"
PERFORMER "Johann Strauss jr (1825-1899), NIcolai Gedda"
INDEX 00 01:57:23
FILE "24 - Act III Alles maskiert, alles maskiert.wav" WAVE
INDEX 01 00:00:00



Показать сообщения:    

Текущее время: 06-Дек 22:55

Часовой пояс: UTC + 3


Вы не можете начинать темы
Вы не можете отвечать на сообщения
Вы не можете редактировать свои сообщения
Вы не можете удалять свои сообщения
Вы не можете голосовать в опросах
Вы не можете прикреплять файлы к сообщениям
Вы не можете скачивать файлы