Чрево / Womb / Clone (Бенедек Флигауф / Benedek Fliegauf) [2010, Германия, Венгрия, Франция, мелодрама, фантастика, BDRip-AVC] MVO (Первый канал) + Original Eng


 

[Цитировать]

ЧревоWomb
Clone

Страна: Германия, Венгрия, Франция
Жанр: мелодрама, фантастика
Год выпуска: 2010
Продолжительность: 01:51:52-Перевод: Профессиональный (многоголосый закадровый)
Первый канал

Cубтитры: нет
Оригинальная аудиодорожка: английский-Режиссер: Бенедек Флигауф / Benedek Fliegauf
В ролях: Ева Грин, Мэтт Смит, Лесли Мэнвилл, Питер Уайт, Руби О. Фи, Тристан Кристофер, Ханна Мюррэй, Наталия Тена, Иштван Ленарт, Аманда Лоуренс, Элла Смит-Описание: Недалекое будущее. Ребекка и Томми подружились в детстве. Но вскоре Ребекка на 12 лет уезжает в Японию, а после возвращения у них с Томми вспыхивает бурный роман. Но вот однажды молодой человек погибает в нелепой автокатастрофе, и безутешная Ребекка решается на отчаянный шаг – клонировать любимого. Но не просто клонировать, а самой выносить его, воспитывая копию Томми, как своего сына. В итоге ребенок растет без отца, будучи уверен, что тот погиб, и воспитывается матерью, которая физически не может испытывать к нему материнские чувства-Доп. информация:
О переводе: Перевод на трекере появляется впервые
Звук качеством "не страдает"-Сэмпл: минута56сек-Качество видео: BDRip
Формат видео: MKV
Видео: AVC, 1088х464, 2,35:1, 24,000 кадра/сек, 1470 Кбит/сек
Аудио 1: AC-3, 48,0 КГц, 192 Кбит/сек, 2 канала (многоголосый Первый канал)
Аудио 2: AC-3, 48,0 КГц, 192 Кбит/сек, 2 канала (английская оригинальная дорожка)

MediaInfox264.log

x264.exe: --pass 2 --bitrate 1470 --preset veryslow --profile high --level 4.1 --aq-mode 2 --bframes 10 --threads 2 --partitions p8x8,b8x8,i8x8,i4x4 --subme 9 --lookahead-threads 2 --sar 1:1
avs [info]: 1088x464p 1:1 @ 24/1 fps (cfr)
x264 [info]: using SAR=1/1
x264 [info]: using cpu capabilities: MMX2 SSE2Fast SSSE3 SSE4.1 Cache64
x264 [info]: profile High, level 4.1
x264 [info]: frame I:1005 Avg QP:14.88 size: 79265
x264 [info]: frame P:27582 Avg QP:17.19 size: 23176
x264 [info]: frame B:132525 Avg QP:20.32 size: 3860
x264 [info]: consecutive B-frames: 0.9% 0.4% 2.0% 8.5% 9.0% 54.8% 10.0% 1.8% 5.5% 2.4% 4.7%
x264 [info]: mb I I16..4: 12.5% 70.1% 17.4%
x264 [info]: mb P I16..4: 0.6% 3.1% 0.4% P16..4: 41.6% 25.2% 16.0% 0.0% 0.0% skip:13.1%
x264 [info]: mb B I16..4: 0.0% 0.2% 0.0% B16..8: 39.8% 6.1% 1.4% direct: 2.4% skip:50.1% L0:49.2% L1:45.6% BI: 5.2%
x264 [info]: 8x8 transform intra:72.7% inter:61.2%
x264 [info]: direct mvs spatial:97.9% temporal:2.1%
x264 [info]: coded y,uvDC,uvAC intra: 86.5% 81.1% 60.3% inter: 14.5% 17.8% 3.9%
x264 [info]: i16 v,h,dc,p: 42% 21% 12% 25%
x264 [info]: i8 v,h,dc,ddl,ddr,vr,hd,vl,hu: 9% 11% 7% 10% 15% 13% 14% 11% 12%
x264 [info]: i4 v,h,dc,ddl,ddr,vr,hd,vl,hu: 9% 11% 4% 9% 15% 13% 14% 11% 13%
x264 [info]: i8c dc,h,v,p: 46% 24% 16% 15%
x264 [info]: Weighted P-Frames: Y:2.8% UV:0.3%
x264 [info]: ref P L0: 35.2% 7.1% 19.3% 6.5% 7.0% 4.2% 5.0% 2.2% 2.5% 1.6% 2.3% 1.5% 1.7% 1.2% 1.7% 0.8%
x264 [info]: ref B L0: 57.7% 14.6% 7.7% 4.3% 3.0% 2.8% 2.2% 1.7% 1.1% 1.1% 1.0% 1.0% 0.8% 0.5% 0.4%
x264 [info]: ref B L1: 90.0% 10.0%
x264 [info]: kb/s:1466.39
x264 [total]: encoded 161112 frames, 5.96 fps, 1466.39 kb/s
Общее
Уникальный идентификатор : 236409316666634111197681437377208080022 (0xB1DAC738C5ED194A9B5FCA8FC67D5696)
Полное имя : Чрево.2010.BDRip.mkv
Формат : Matroska
Версия формата : Version 2
Размер файла : 1,45 Гбайт
Продолжительность : 1 ч. 51 м.
Общий поток : 1852 Кбит/сек
Название фильма : Чрево(Womb).2010.BDRip
Дата кодирования : UTC 2016-02-24 09:58:55
Программа кодирования : mkvmerge v8.3.0 ('Over the Horizon') 32bit
Библиотека кодирования : libebml v1.3.1 + libmatroska v1.4.2
Видео
Идентификатор : 1
Формат : AVC
Формат/Информация : Advanced Video Codec
Профиль формата : High@L4.1
Параметр CABAC формата : Да
Параметр ReFrames формата : 16 кадров
Идентификатор кодека : V_MPEG4/ISO/AVC
Продолжительность : 1 ч. 51 м.
Битрейт : 1470 Кбит/сек
Ширина : 1088 пикселей
Высота : 464 пикселя
Соотношение сторон : 2,35:1
Режим частоты кадров : Постоянный
Частота кадров : 24,000 кадра/сек
Цветовое пространство : YUV
Субдискретизация насыщенности : 4:2:0
Битовая глубина : 8 бит
Тип развёртки : Прогрессивная
Бит/(Пиксели*Кадры) : 0.121
Размер потока : 1,12 Гбайт (77%)
Заголовок : Чрево(Womb).2010.BDRip
Библиотека кодирования : x264 core 146 r2538 121396c
Настройки программы : cabac=1 / ref=16 / deblock=1:0:0 / analyse=0x3:0x113 / me=umh / subme=9 / psy=1 / psy_rd=1.00:0.00 / mixed_ref=1 / me_range=24 / chroma_me=1 / trellis=2 / 8x8dct=1 / cqm=0 / deadzone=21,11 / fast_pskip=1 / chroma_qp_offset=-2 / threads=2 / lookahead_threads=2 / sliced_threads=0 / nr=0 / decimate=1 / interlaced=0 / bluray_compat=0 / constrained_intra=0 / bframes=10 / b_pyramid=2 / b_adapt=2 / b_bias=0 / direct=3 / weightb=1 / open_gop=0 / weightp=2 / keyint=250 / keyint_min=24 / scenecut=40 / intra_refresh=0 / rc_lookahead=60 / rc=2pass / mbtree=1 / bitrate=1470 / ratetol=1.0 / qcomp=0.60 / qpmin=0 / qpmax=69 / qpstep=4 / cplxblur=20.0 / qblur=0.5 / ip_ratio=1.40 / aq=2:1.00
Язык : English
Default : Да
Forced : Нет
Аудио #1
Идентификатор : 2
Формат : AC-3
Формат/Информация : Audio Coding 3
Расширение режима : CM (complete main)
Параметр Endianness формата : Big
Идентификатор кодека : A_AC3
Продолжительность : 1 ч. 51 м.
Вид битрейта : Постоянный
Битрейт : 192 Кбит/сек
Каналы : 2 канала
Расположение каналов : Front: L R
Частота : 48,0 КГц
Частота кадров : 31,250 кадров/сек (1536 spf)
Метод сжатия : С потерями
Размер потока : 154 Мбайт (10%)
Заголовок : многоголосый Первый канал
Язык : Russian
Default : Да
Forced : Нет
Аудио #2
Идентификатор : 3
Формат : AC-3
Формат/Информация : Audio Coding 3
Расширение режима : CM (complete main)
Параметр Endianness формата : Big
Идентификатор кодека : A_AC3
Продолжительность : 1 ч. 51 м.
Вид битрейта : Постоянный
Битрейт : 192 Кбит/сек
Каналы : 2 канала
Расположение каналов : Front: L R
Частота : 48,0 КГц
Частота кадров : 31,250 кадров/сек (1536 spf)
Метод сжатия : С потерями
Размер потока : 154 Мбайт (10%)
Заголовок : оригинал
Язык : English
Default : Нет
Forced : Нет

Скриншот c названием фильма




Показать сообщения:    

Текущее время: 10-Дек 13:52

Часовой пояс: UTC + 3


Вы не можете начинать темы
Вы не можете отвечать на сообщения
Вы не можете редактировать свои сообщения
Вы не можете удалять свои сообщения
Вы не можете голосовать в опросах
Вы не можете прикреплять файлы к сообщениям
Вы не можете скачивать файлы