Ингмар Бергман о фильме Седьмая печать / Ingmar Bergman - Det Sjunde inseglet (The Seventh Seal) (Мари Нирерёд / Marie Nyrerod) [2003, документальный, кинематограф, DVDRip-AVC] Sub (Rus)


Статистика раздачи [Обновить пиров]
Размер:  36 MB   |    Зарегистрирован:  8 месяцев 19 дней   |    Скачан:  0 раз

Полного источника не было: Никогда

 
   
 
 
 

[Цитировать]

Ингмар Бергман о фильме "Седьмая печать"
Ingmar Bergman - Det Sjunde inseglet- Дата/Год выпуска: 2003
Страна: Швеция
Жанр: документальный, кинематограф
Продолжительность: 00:02:57
Перевод: Субтитры
Русские субтитры: естьФормат субтитров: softsub (SRT)
Доп. информация о субтитрах: инициатор Алексей Проскуряков aka Aleks Punk
Оригинальная аудиодорожка: шведский
Режиссер: Мари Нирерёд / Marie Nyreröd
Описание: Небольшое интервью во время съемок документального фильма "Бергман и остров Форё / Bergman och Fårö" (2004) у Ингмара Бергмана берет режиссер Мари Нирерёд / Marie Nyreröd. Разговор идет о фильме "Седьмая печать".
Доп. информация: Исходник BluRay (The Criterion Collection #11). За предоставленный материал благодарность Aleks Punk.

качество: DVDRip-AVC
формат: MKV
Видео: AVC (H.264), 640x352 (16:9), 23.976 fps, ~1500 kbps avg, 0.278 bit/pixel
Аудио: AC3, 2 ch, 48 kHz, 192 kbps

Пример субтитров

1
00:00:15,515 --> 00:00:17,142
В "Седьмой печати"
2
00:00:17,784 --> 00:00:22,118
есть одна из самых
известных сцен в истории кино-
3
00:00:22,288 --> 00:00:25,314
рыцарь, играющий
в шахматы со смертью.
4
00:00:25,492 --> 00:00:27,460
Как она возникла?
5
00:00:28,461 --> 00:00:32,295
Все было очень просто.
6
00:00:32,465 --> 00:00:37,300
Я снял этот фильм,
7
00:00:37,470 --> 00:00:40,200
чтобы разобраться
со своим страхом смерти.
8
00:00:41,041 --> 00:00:45,910
И главным персонажем
должна была стать смерть,
9
00:00:46,479 --> 00:00:49,846
она появлялась
в самом начале.
10
00:00:51,885 --> 00:00:55,286
И я подумал....
11
00:00:55,922 --> 00:01:01,121
а ведь там рыцарь
путешествует
12
00:01:02,162 --> 00:01:04,790
по стране, охваченной
чумой...
13
00:01:06,433 --> 00:01:11,234
и я подумал,
14
00:01:11,404 --> 00:01:16,103
как он мог встретить
там смерть...
15
00:01:18,445 --> 00:01:21,812
И мне вспомнилась
16
00:01:22,315 --> 00:01:25,876
картина Альбертуса Пиктора -
17
00:01:26,052 --> 00:01:30,682
известного средневекового
художника -
18
00:01:30,857 --> 00:01:36,921
картина, где смерть
играет в шахматы
19
00:01:37,097 --> 00:01:38,792
с рыцарем.
20
00:01:39,933 --> 00:01:43,198
Так возникла
эта сцена.

MediaInfo

Уникальный идентификатор                 : 202417675432349816404423128377612720158 (0x984839EAC9EB0FE7AB0F608B06CE581E)
Полное имя : [apreder]Ingmar_Bergman_Det_Sjunde_inseglet(2003)DVDRip.mkv
Формат : Matroska
Версия формата : Version 2
Размер файла : 36,0 Мбайт
Продолжительность : 2 м. 57 с.
Общий поток : 1702 Кбит/сек
Дата кодирования : UTC 2016-02-24 15:48:32
Программа кодирования : mkvmerge v8.9.0 ('Father Daughter') 64bit
Библиотека кодирования : libebml v1.3.3 + libmatroska v1.4.4
Обложка : Yes
Attachments : cover.jpg / cover_small.jpg
Видео
Идентификатор : 1
Формат : AVC
Формат/Информация : Advanced Video Codec
Профиль формата : High@L4.1
Параметр CABAC формата : Да
Параметр ReFrames формата : 9 кадров
Идентификатор кодека : V_MPEG4/ISO/AVC
Продолжительность : 2 м. 57 с.
Битрейт : 1500 Кбит/сек
Ширина : 640 пикселей
Высота : 352 пикселя
Соотношение сторон : 16:9
Режим частоты кадров : Постоянный
Частота кадров : 23,976 (24000/1001) кадра/сек
Цветовое пространство : YUV
Субдискретизация насыщенности : 4:2:0
Битовая глубина : 8 бит
Тип развёртки : Прогрессивная
Бит/(Пиксели*Кадры) : 0.278
Размер потока : 31,2 Мбайт (87%)
Библиотека кодирования : x264 core 148 r2665 a01e339
Настройки программы : cabac=1 / ref=9 / deblock=1:-1:-1 / analyse=0x3:0x133 / me=umh / subme=10 / psy=1 / psy_rd=1.00:0.15 / mixed_ref=1 / me_range=24 / chroma_me=1 / trellis=2 / 8x8dct=1 / cqm=0 / deadzone=21,11 / fast_pskip=1 / chroma_qp_offset=-3 / threads=11 / lookahead_threads=2 / sliced_threads=0 / nr=0 / decimate=1 / interlaced=0 / bluray_compat=0 / constrained_intra=0 / bframes=16 / b_pyramid=2 / b_adapt=2 / b_bias=0 / direct=3 / weightb=1 / open_gop=0 / weightp=2 / keyint=240 / keyint_min=23 / scenecut=40 / intra_refresh=0 / rc_lookahead=60 / rc=2pass / mbtree=1 / bitrate=1500 / ratetol=1.0 / qcomp=0.60 / qpmin=0 / qpmax=69 / qpstep=4 / cplxblur=20.0 / qblur=0.5 / vbv_maxrate=62500 / vbv_bufsize=78125 / nal_hrd=none / filler=0 / ip_ratio=1.40 / aq=1:1.00
Default : Да
Forced : Нет
Аудио
Идентификатор : 2
Формат : AC-3
Формат/Информация : Audio Coding 3
Расширение режима : CM (complete main)
Параметр Endianness формата : Big
Идентификатор кодека : A_AC3
Продолжительность : 2 м. 57 с.
Вид битрейта : Постоянный
Битрейт : 192 Кбит/сек
Каналы : 1 канал
Расположение каналов : Front: C
Частота : 48,0 КГц
Частота кадров : 31,250 кадров/сек (1536 spf)
Метод сжатия : С потерями
Размер потока : 4,06 Мбайт (11%)
Язык : Swedish
Default : Да
Forced : Нет
Текст
Идентификатор : 3
Формат : UTF-8
Идентификатор кодека : S_TEXT/UTF8
Идентификатор кодека/Информация : UTF-8 Plain Text
Язык : Russian
Default : Нет
Forced : Нет

Скриншоты

Резервные скриншоты

-
[teatrix.ru].t23091.torrent 
Торрент: Зарегистрирован [ 2016-03-21 00:33 ] · 19071277E9AE942C6059C58F902F29EECFE27D5C

Скачать .torrent

Скачать

12 KB

Статус: проверено
Скачан: 0 раз
Размер: 36 MB
terms.php



Показать сообщения:    

Текущее время: 09-Дек 16:34

Часовой пояс: UTC + 3


Вы не можете начинать темы
Вы не можете отвечать на сообщения
Вы не можете редактировать свои сообщения
Вы не можете удалять свои сообщения
Вы не можете голосовать в опросах
Вы не можете прикреплять файлы к сообщениям
Вы можете скачивать файлы