Ингмар Бергман о фильме Лето с Моникой / Ingmar Bergman - Sommaren med Monika (Мари Нирерёд / Marie Nyrerod) [2003, документальный, кинематограф, DVDRip-AVC] Sub (Rus)


Статистика раздачи [Обновить пиров]
Размер:  50 MB   |    Зарегистрирован:  8 месяцев 19 дней   |    Скачан:  0 раз

Полного источника не было: Никогда

 
   
 
 
 

[Цитировать]

Ингмар Бергман о фильме "Лето с Моникой"
Ingmar Bergman - Sommaren med Monika- Дата/Год выпуска: 2003
Страна: Швеция
Жанр: документальный, кинематограф
Продолжительность: 00:04:08
Перевод: Субтитры
Русские субтитры: естьФормат субтитров: softsub (SRT)
Доп. информация о субтитрах: инициатор Алексей Проскуряков aka Aleks Punk
Оригинальная аудиодорожка: шведский
Режиссер: Мари Нирерёд / Marie Nyreröd
Описание: Небольшое интервью во время съемок документального фильма "Бергман и остров Форё / Bergman och Fårö" (2004) у Ингмара Бергмана берет режиссер Мари Нирерёд / Marie Nyreröd. Разговор идет о фильме "Лето с Моникой".

качество: DVDRip-AVC
формат: MKV
Видео: AVC (H.264), 640x352 (16:9), 23.976 fps, ~1500 kbps avg, 0.278 bit/pixel
Аудио: AC3, 2 ch, 48 kHz, 192 kbps

Пример субтитров

1
00:00:16,249 --> 00:00:20,322
Вы недавно купили
DVD плеер
2
00:00:20,987 --> 00:00:23,934
и первый фильм, который
посмотрели - "Лето с Моникой".
3
00:00:24,257 --> 00:00:25,827
Что скажете о нем?
4
00:00:28,862 --> 00:00:34,642
У меня к этому фильму
самые теплые чувства
5
00:00:36,936 --> 00:00:38,882
в силу разных причин.
6
00:00:39,572 --> 00:00:42,451
Во-первых,
это хорошее кино.
7
00:00:42,609 --> 00:00:46,421
Снять его - большая удача.
8
00:00:48,548 --> 00:00:52,223
Я встретил писателя
Фогельстрема - автора книги
9
00:00:52,752 --> 00:00:55,358
"Лето с Моникой" на улице.
10
00:00:55,722 --> 00:01:00,137
Он уже написал
несколько сценариев для студии
Svensk Filmindustri
11
00:01:00,293 --> 00:01:04,469
и мы уже хорошо знали друг друга.
12
00:01:05,899 --> 00:01:08,846
Я спросил, над чем
он работает.
13
00:01:09,002 --> 00:01:14,281
Он сказал, что пишет
книгу о
14
00:01:14,441 --> 00:01:17,422
двух влюбленных,
15
00:01:17,577 --> 00:01:20,421
о их сложной жизни.
16
00:01:20,580 --> 00:01:22,787
И о их расставании.
17
00:01:23,249 --> 00:01:25,855
И я сказал:
да это готовый фильм.
18
00:01:26,019 --> 00:01:29,057
Напиши сценарий.
19
00:01:29,422 --> 00:01:31,333
И он согласился.
20
00:01:32,092 --> 00:01:36,632
Он написал сценарий

MediaInfo

Общее
Уникальный идентификатор : 235626186678162272699820229420084150862 (0xB143F3EEAAD85163817F571B3C7CC24E)
Полное имя : [apreder]Ingmar_Bergman_Sommaren_med_Monika(2003)DVDRip.mkv
Формат : Matroska
Версия формата : Version 2
Размер файла : 50,4 Мбайт
Продолжительность : 4 м. 8 с.
Общий поток : 1701 Кбит/сек
Дата кодирования : UTC 2016-02-24 16:15:47
Программа кодирования : mkvmerge v8.9.0 ('Father Daughter') 64bit
Библиотека кодирования : libebml v1.3.3 + libmatroska v1.4.4
Обложка : Yes
Attachments : cover.jpg / cover_small.jpg
Видео
Идентификатор : 1
Формат : AVC
Формат/Информация : Advanced Video Codec
Профиль формата : High@L4.1
Параметр CABAC формата : Да
Параметр ReFrames формата : 9 кадров
Идентификатор кодека : V_MPEG4/ISO/AVC
Продолжительность : 4 м. 8 с.
Битрейт : 1500 Кбит/сек
Ширина : 640 пикселей
Высота : 352 пикселя
Соотношение сторон : 16:9
Режим частоты кадров : Постоянный
Частота кадров : 23,976 (24000/1001) кадра/сек
Цветовое пространство : YUV
Субдискретизация насыщенности : 4:2:0
Битовая глубина : 8 бит
Тип развёртки : Прогрессивная
Бит/(Пиксели*Кадры) : 0.278
Размер потока : 43,7 Мбайт (87%)
Библиотека кодирования : x264 core 148 r2665 a01e339
Настройки программы : cabac=1 / ref=9 / deblock=1:-1:-1 / analyse=0x3:0x133 / me=umh / subme=10 / psy=1 / psy_rd=1.00:0.15 / mixed_ref=1 / me_range=24 / chroma_me=1 / trellis=2 / 8x8dct=1 / cqm=0 / deadzone=21,11 / fast_pskip=1 / chroma_qp_offset=-3 / threads=11 / lookahead_threads=2 / sliced_threads=0 / nr=0 / decimate=1 / interlaced=0 / bluray_compat=0 / constrained_intra=0 / bframes=16 / b_pyramid=2 / b_adapt=2 / b_bias=0 / direct=3 / weightb=1 / open_gop=0 / weightp=2 / keyint=240 / keyint_min=23 / scenecut=40 / intra_refresh=0 / rc_lookahead=60 / rc=2pass / mbtree=1 / bitrate=1500 / ratetol=1.0 / qcomp=0.60 / qpmin=0 / qpmax=69 / qpstep=4 / cplxblur=20.0 / qblur=0.5 / vbv_maxrate=62500 / vbv_bufsize=78125 / nal_hrd=none / filler=0 / ip_ratio=1.40 / aq=1:1.00
Default : Да
Forced : Нет
Аудио
Идентификатор : 2
Формат : AC-3
Формат/Информация : Audio Coding 3
Расширение режима : CM (complete main)
Параметр Endianness формата : Big
Идентификатор кодека : A_AC3
Продолжительность : 4 м. 8 с.
Вид битрейта : Постоянный
Битрейт : 192 Кбит/сек
Каналы : 1 канал
Расположение каналов : Front: C
Частота : 48,0 КГц
Частота кадров : 31,250 кадров/сек (1536 spf)
Метод сжатия : С потерями
Размер потока : 5,69 Мбайт (11%)
Язык : Swedish
Default : Да
Forced : Нет
Текст
Идентификатор : 3
Формат : UTF-8
Идентификатор кодека : S_TEXT/UTF8
Идентификатор кодека/Информация : UTF-8 Plain Text
Язык : Russian
Default : Нет
Forced : Нет

Скриншоты

Резервные скриншоты

-
[teatrix.ru].t23092.torrent 
Торрент: Зарегистрирован [ 2016-03-21 00:33 ] · 2A7588815C4FF05F69C9251A818C7DB516697DF7

Скачать .torrent

Скачать

16 KB

Статус: проверено
Скачан: 0 раз
Размер: 50 MB
terms.php



Показать сообщения:    

Текущее время: 09-Дек 14:35

Часовой пояс: UTC + 3


Вы не можете начинать темы
Вы не можете отвечать на сообщения
Вы не можете редактировать свои сообщения
Вы не можете удалять свои сообщения
Вы не можете голосовать в опросах
Вы не можете прикреплять файлы к сообщениям
Вы можете скачивать файлы