(Classical) John Cage - Sonatas & Interludes for Prepared Piano - Gerard Fremy - 1983, FLAC (image+.cue) lossless


 

[Цитировать]

John Cage - Sonatas & Interludes for Prepared Piano - Gerard Fremy
Жанр: Classical
Страна-производитель диска: The Netherlands
Год издания диска: 1983
Издатель (лейбл): Etcetera Records
Номер по каталогу: KTC 2001
Дата записи: 1983?
Аудиокодек: FLAC
Тип рипа: image+.cue
Битрейт аудио: lossless
Продолжительность: 70:06
Источник: собственный рип
Наличие сканов в содержимом раздачи: да
Треклист:
John Cage (1912-1992)
Sonatas & Interludes for Prepared Piano
[1] Sonata 1
[2] Sonata 2
[3] Sonata 3
[4] Sonata 4
[5] Interlude I
[6] Sonata 5
[7] Sonata 6
[8] Sonata 7
[9] Sonata 8
[10] Interlude II
[11] Interlude III
[12] Sonata 9
[13] Sonata 10
[14] Sonata 11
[15] Sonata 12
[16] Interlude IV
[17] Sonata 13
[18] Sonata 14 & 15
[19] Sonata 16
Исполнители:
Gerard Fremy prepared piano

Лог создания рипа

Exact Audio Copy V1.0 beta 3 from 29. August 2011
EAC extraction logfile from 7. June 2015, 13:25
Gerard Fremy / Cage - Sonatas & Interludes for Prepared Piano
Used drive : HL-DT-STDVDRAM GU70N Adapter: 0 ID: 0
Read mode : Secure
Utilize accurate stream : Yes
Defeat audio cache : Yes
Make use of C2 pointers : No
Read offset correction : 48
Overread into Lead-In and Lead-Out : No
Fill up missing offset samples with silence : Yes
Delete leading and trailing silent blocks : No
Null samples used in CRC calculations : Yes
Used interface : Native Win32 interface for Win NT & 2000
Used output format : User Defined Encoder
Selected bitrate : 128 kBit/s
Quality : High
Add ID3 tag : No
Command line compressor : C:\Program Files (x86)\Exact Audio Copy\Flac\flac.exe
Additional command line options : -V -8 -T "Date=%year%" -T "Genre=%genre%" %source%
TOC of the extracted CD
Track | Start | Length | Start sector | End sector
---------------------------------------------------------
1 | 0:00.00 | 3:26.28 | 0 | 15477
2 | 3:26.28 | 2:11.02 | 15478 | 25304
3 | 5:37.30 | 2:43.38 | 25305 | 37567
4 | 8:20.68 | 2:37.35 | 37568 | 49377
5 | 10:58.28 | 3:47.67 | 49378 | 66469
6 | 14:46.20 | 1:41.45 | 66470 | 74089
7 | 16:27.65 | 2:38.45 | 74090 | 85984
8 | 19:06.35 | 3:09.43 | 85985 | 100202
9 | 22:16.03 | 3:56.47 | 100203 | 117949
10 | 26:12.50 | 4:29.50 | 117950 | 138174
11 | 30:42.25 | 2:23.53 | 138175 | 148952
12 | 33:06.03 | 4:24.37 | 148953 | 168789
13 | 37:30.40 | 4:04.60 | 168790 | 187149
14 | 41:35.25 | 3:53.05 | 187150 | 204629
15 | 45:28.30 | 3:58.68 | 204630 | 222547
16 | 49:27.23 | 3:22.22 | 222548 | 237719
17 | 52:49.45 | 4:49.30 | 237720 | 259424
18 | 57:39.00 | 6:59.58 | 259425 | 290907
19 | 64:38.58 | 5:27.30 | 290908 | 315462
Range status and errors
Selected range
Filename C:\temp\Cage - Sonatas & Interludes for Prepared Piano - Fremy\Cage - Sonatas & Interludes for Prepared Piano.wav
Peak level 100.0 %
Extraction speed 2.3 X
Range quality 100.0 %
Test CRC 477D7229
Copy CRC 477D7229
Copy OK
No errors occurred
AccurateRip summary
Track 1 accurately ripped (confidence 7) [383ADF06] (AR v1)
Track 2 accurately ripped (confidence 2) [A2D150AA] (AR v2)
Track 3 accurately ripped (confidence 2) [F77C1114] (AR v2)
Track 4 accurately ripped (confidence 2) [F459DD43] (AR v2)
Track 5 accurately ripped (confidence 2) [63057902] (AR v2)
Track 6 accurately ripped (confidence 7) [9077B169] (AR v1)
Track 7 accurately ripped (confidence 7) [B5F40F53] (AR v1)
Track 8 accurately ripped (confidence 2) [48830BC4] (AR v2)
Track 9 accurately ripped (confidence 3) [1434816D] (AR v2)
Track 10 accurately ripped (confidence 2) [163CC8F5] (AR v2)
Track 11 accurately ripped (confidence 8) [5582B119] (AR v1)
Track 12 accurately ripped (confidence 8) [9D49F11C] (AR v1)
Track 13 accurately ripped (confidence 7) [D8EBAE40] (AR v1)
Track 14 accurately ripped (confidence 7) [DE500376] (AR v1)
Track 15 accurately ripped (confidence 8) [92FE2A36] (AR v1)
Track 16 accurately ripped (confidence 7) [F3827785] (AR v1)
Track 17 accurately ripped (confidence 8) [A8B0E40B] (AR v1)
Track 18 accurately ripped (confidence 8) [A61267E7] (AR v1)
Track 19 accurately ripped (confidence 8) [DE2A2C4C] (AR v1)
All tracks accurately ripped
End of status report
==== Log checksum D888CA3FED48A6468ED446E9C1CE97775613619F7DACAAB83A8269A6D8E366B2 ====



Показать сообщения:    

Текущее время: 09-Дек 18:33

Часовой пояс: UTC + 3


Вы не можете начинать темы
Вы не можете отвечать на сообщения
Вы не можете редактировать свои сообщения
Вы не можете удалять свои сообщения
Вы не можете голосовать в опросах
Вы не можете прикреплять файлы к сообщениям
Вы не можете скачивать файлы