Луна / La luna (Бернардо Бертолуччи / Bernardo Bertolucci) [1979, Италия, драма, DVDRip] MVO + MVO (Первый канал) + Sub Rus + Original Eng


Статистика раздачи [Обновить пиров]
Размер:  2.55 GB   |    Зарегистрирован:  8 месяцев 20 дней   |    Скачан:  0 раз

Полного источника не было: Никогда

 
   
 
 
 

[Цитировать]

Луна / La luna
Страна: Италия
Жанр: драма
Год выпуска: 1979
Продолжительность: 02:16:05
Перевод: Профессиональный (многоголосый закадровый)
Перевод: Профессиональный (многоголосый закадровый) - Первый канал со вставками mvo на вырезанные сцены
Cубтитры: русские
Оригинальная аудиодорожка: английский

Режиссер: Бернардо Бертолуччи / Bernardo Bertolucci

В ролях: Джилл Клейберг, Мэттью Бэрри, Вероника Лазар, Ренато Сальватори, Фред Гуинн, Алида Валли, Элизабетта Кампети, Франко Читти, Роберто Бениньи, Карло Вердоне
Описание: Подросток Джо, сын известной оперной певицы Катерины Сильвери, считает, что муж матери, Даглас Уинти, его настоящий отец. Вот только Джо хочется, чтобы отец был крепким и решительным, а не мягким и безвольным, как Даглас. В отчаянии Джо ищет поддержки в наркотиках.
Рискуя карьерой, разрушая все собственные планы, но надеясь спасти сына, Катерина с Джо едет в Италию. В Италию, потому что там живет настоящий отец парня, работающий школьным учителем. Катерине удается найти общий язык с сыном, и их отношения развиваются намного глубже, чем она предполагала…

Качество видео: DVDRip
Формат видео: AVI
Видео: 704x384 (1.83:1), 25 fps, XviD build 73 ~2063 kbps avg, 0.30 bit/pixel
Аудио: 48 kHz, AC3 Dolby Digital, 2/0 (L,R) ch, ~224 kbps - многоголосый
отдельными файлами:
Аудио: 48 kHz, AC3 Dolby Digital, 2/0 (L,R) ch, ~192 kbps - Первый канал
Аудио: 48 kHz, AC3 Dolby Digital, 2/0 (L,R) ch, ~192 kbps - оригинал

MediaInfo

Общее
Полное имя : H:\La.Luna.1979.dvdrip_[2.18]_[teko]\La.Luna.1979.dvdrip_[2.18].avi
Формат : AVI
Формат/Информация : Audio Video Interleave
Профиль формата : OpenDML
Размер файла : 2,18 Гбайт
Продолжительность : 2 ч. 16 м.
Общий поток : 2294 Кбит/сек
Программа кодирования : VirtualDubMod 1.5.10.3 | www.virtualdub-fr.org || (build 2550/release)
Библиотека кодирования : VirtualDubMod build 2550/release
Видео
Идентификатор : 0
Формат : MPEG-4 Visual
Профиль формата : Advanced Simple@L5
Параметр BVOP формата : 2
Параметр QPel формата : Нет
Параметр GMC формата : Без точки перехода
Параметр матрицы формата : Выборочная
Идентификатор кодека : XVID
Идентификатор кодека/Подсказка : XviD
Продолжительность : 2 ч. 16 м.
Битрейт : 2058 Кбит/сек
Ширина : 704 пикселя
Высота : 384 пикселя
Соотношение сторон : 1,85:1
Частота кадров : 25,000 кадров/сек
Цветовое пространство : YUV
Субдискретизация насыщенности : 4:2:0
Битовая глубина : 8 бит
Тип развёртки : Прогрессивная
Метод сжатия : С потерями
Бит/(Пиксели*Кадры) : 0.304
Размер потока : 1,96 Гбайт (90%)
Библиотека кодирования : XviD 73
Аудио
Идентификатор : 1
Формат : AC-3
Формат/Информация : Audio Coding 3
Расширение режима : CM (complete main)
Параметр Endianness формата : Big
Идентификатор кодека : 2000
Продолжительность : 2 ч. 16 м.
Вид битрейта : Постоянный
Битрейт : 224 Кбит/сек
Каналы : 2 канала
Расположение каналов : Front: L R
Частота : 48,0 КГц
Битовая глубина : 16 бит
Метод сжатия : С потерями
Размер потока : 218 Мбайт (10%)
Выравнивание : Разделение по промежуткам
Продолжительность промежутка : 40 мс. (1,00 видеокадр)
Время предзагрузки промежутка : 500 мс.
[teatrix.ru].t23096.torrent 
Торрент: Зарегистрирован [ 2016-03-21 00:33 ] · 3E7A9982806617331C65EEE57990EC3746D3EA03

Скачать .torrent

Скачать

13 KB

Статус: проверено
Скачан: 0 раз
Размер: 2.55 GB
terms.php



Быстрый ответ

Имя:

      
Для отправки сообщений необходимо включить JavaScript
Показать сообщения:    

Текущее время: 10-Дек 04:11

Часовой пояс: UTC + 3


Вы можете начинать темы
Вы можете отвечать на сообщения
Вы не можете редактировать свои сообщения
Вы не можете удалять свои сообщения
Вы не можете голосовать в опросах
Вы не можете прикреплять файлы к сообщениям
Вы можете скачивать файлы