То, что скрывают французы... / Те, що приховують французи... (Лев Сомов) [2016 г., Украина, комедия в ритме "босанова", TVRip] Киевская академическая мастерская театрального искусства "Сузирья"


 

[Цитировать]

То, что скрывают французы... / Те, що приховують французи... (2 действия) Название театра: Киевская академическая мастерская театрального искусства "Сузирья".
Год выпуска: 2016.
Страна: Украина .
Жанр: комедия в ритме "босанова".
Продолжительность: 01:28:03 + 00:49:53.
Язык: Русский.
Автор спектакля: народный артист Украины Лев Сомов.
Действующие лица и исполнители:
Фрэнк Хардер - Валентин Томусяк,
Альбер Лямар - народный артист Украины Лев Сомов,
Луи Лямар - Михаил Досенко,
Матильда Ласбри - заслуженная артистка Украины Ксения Николаева,
Жасант - Елена Колесниченко.
О спектакле:
После внезапного исчезновения жены одинокий Альбер Лямар воспитывает сына Луи. В этом ему помогает близкая подруга жены Матильда Ласбри. Луи вырос и решает жениться, а Альбер хочет связать свою жизнь с Матильдой. Обе свадьбы должны состояться в один день. Гувернантка Жасан имеет свои намерения...
Но появление полковника Фрэнка Хардера, приехавшего из Америки, разрушает все планы... Фантастичность, невозможность, нереальность, истерика, ужас, смятение, пылкие страсти, тонкий юмор, пикантные ситуации, бурлеск и очаровательная французская музыка - все это спектакль Киевской академической мастерской театрального искусства "Сузирья" по французской комедии - легкой и пьянящей, словно глоток шампанского.

Дополнительная информация:
Выпущено: Киевская академическая мастерская театрального искусства "Сузирья", ГТРК "Культура".
Авторы: Жан-Жак Брикер, Морис Ласег.
Режиссер-постановщик и автор сценического пространства: заслуженный артист Украины Лев Сомов.
Художник по костюмам: Ева Рикель.
В спектакле используется популярная музыка 60-70 годов прошлого столетия.
Художественный руководитель театра: заслуженный деятель искусств Украины, народный артист Украины Алексей Кужельный.

О спектакле.
Релиз
Рип sharky.

Качество видео:...TVRip
Формат:.................AVI
Видео:..704x528 (1.33:1), 25 fps, XviD build 50 ~2051 kbps avg, 0.22 bit/pixel
Аудио:..48 kHz, AC3 Dolby Digital, 2/0 (L,R) ch, ~192 kbps

Отчет Media Info

1-е действие:
General
Complete name : To.chto.skryvayut.frantsuzy_Kievskaya.AMTI.Suzir'ya.(2.serii.iz.2).2016.XviD.TVRip.fenixclub.avi\To.chto.skryvayut.frantsuzy_Kievskaya.AMTI.Suzir'ya.2016_1-ya.seriya.avi
Format : AVI
Format/Info : Audio Video Interleave
File size : 1.39 GiB
Duration : 1h 28mn
Overall bit rate : 2 254 Kbps
Writing application : VirtualDubMod 1.5.10.3 | www.virtualdub-fr.org || (build 2550/release)
Writing library : VirtualDubMod build 2550/release
Video
ID : 0
Format : MPEG-4 Visual
Format profile : Advanced Simple@L5
Format settings, BVOP : 1
Format settings, QPel : No
Format settings, GMC : No warppoints
Format settings, Matrix : Default (H.263)
Codec ID : XVID
Codec ID/Hint : XviD
Duration : 1h 28mn
Bit rate : 2 052 Kbps
Width : 704 pixels
Height : 528 pixels
Display aspect ratio : 4:3
Frame rate : 25.000 fps
Color space : YUV
Chroma subsampling : 4:2:0
Bit depth : 8 bits
Scan type : Progressive
Compression mode : Lossy
Bits/(Pixel*Frame) : 0.221
Stream size : 1.26 GiB (91%)
Writing library : XviD 1.2.1 (UTC 2008-12-04)
Audio
ID : 1
Format : AC-3
Format/Info : Audio Coding 3
Mode extension : CM (complete main)
Format settings, Endianness : Big
Codec ID : 2000
Duration : 1h 28mn
Bit rate mode : Constant
Bit rate : 192 Kbps
Channel(s) : 2 channels
Channel positions : Front: L R
Sampling rate : 48.0 KHz
Frame rate : 31.250 fps (1536 spf)
Compression mode : Lossy
Stream size : 121 MiB (9%)
Alignment : Split accross interleaves
Interleave, duration : 40 ms (1.00 video frame)
Interleave, preload duratio : 500 ms.
2-е действие:
General
Complete name : To.chto.skryvayut.frantsuzy_Kievskaya.AMTI.Suzir'ya.(2.serii.iz.2).2016.XviD.TVRip.fenixclub.avi\To.chto.skryvayut.frantsuzy_Kievskaya.AMTI.Suzir'ya.2016_2-ya.seriya.avi
Format : AVI
Format/Info : Audio Video Interleave
File size : 804 MiB
Duration : 49mn 52s
Overall bit rate : 2 252 Kbps
Writing application : VirtualDubMod 1.5.10.3 | www.virtualdub-fr.org || (build 2550/release)
Writing library : VirtualDubMod build 2550/release
Video
ID : 0
Format : MPEG-4 Visual
Format profile : Advanced Simple@L5
Format settings, BVOP : 1
Format settings, QPel : No
Format settings, GMC : No warppoints
Format settings, Matrix : Default (H.263)
Codec ID : XVID
Codec ID/Hint : XviD
Duration : 49mn 52s
Bit rate : 2 050 Kbps
Width : 704 pixels
Height : 528 pixels
Display aspect ratio : 4:3
Frame rate : 25.000 fps
Color space : YUV
Chroma subsampling : 4:2:0
Bit depth : 8 bits
Scan type : Progressive
Compression mode : Lossy
Bits/(Pixel*Frame) : 0.221
Stream size : 732 MiB (91%)
Writing library : XviD 1.2.1 (UTC 2008-12-04)
Audio
ID : 1
Format : AC-3
Format/Info : Audio Coding 3
Mode extension : CM (complete main)
Format settings, Endianness : Big
Codec ID : 2000
Duration : 49mn 52s
Bit rate mode : Constant
Bit rate : 192 Kbps
Channel(s) : 2 channels
Channel positions : Front: L R
Sampling rate : 48.0 KHz
Frame rate : 31.250 fps (1536 spf)
Compression mode : Lossy
Stream size : 68.5 MiB (9%)
Alignment : Split accross interleaves
Interleave, duration : 40 ms (1.00 video frame)
Interleave, preload duratio : 500 ms.

Скриншот с названием

Скриншоты


Альтернативный хост





Показать сообщения:    

Текущее время: 09-Дек 16:29

Часовой пояс: UTC + 3


Вы не можете начинать темы
Вы не можете отвечать на сообщения
Вы не можете редактировать свои сообщения
Вы не можете удалять свои сообщения
Вы не можете голосовать в опросах
Вы не можете прикреплять файлы к сообщениям
Вы не можете скачивать файлы