(Classical / Violin / Piano) Schumann - Violinsonaten Nos. 1&2 (Gidon Kremer, Martha Argerich) / Шуман - Сонаты для скрипки op. 105 и op. 121 - 1986, FLAC (tracks+.cue) lossless


 

[Цитировать]

Schumann - Violinsonaten Nos. 1&2 / Шуман - Сонаты для скрипки op. 105 и op. 121
Жанр: Classical / Violin / Piano
Страна-производитель диска: Germany
Год издания диска: 1986
Издатель (лейбл): Deutsche Grammophon
Номер по каталогу: 419 235-2
Дата записи: 11/1985
Аудиокодек: FLAC
Тип рипа: tracks+.cue
Битрейт аудио: lossless
Продолжительность: 00:48:58
Источник: скачано с
сайт-источник/ник/другое: what.cd
Наличие сканов в содержимом раздачи: нет
Исполнители:
Gidon Kremer - Violin
Martha Argerich - Piano

Треклист:
Sonate Nr. 1 Für Violine Und Klavier A-moll Op. 105
01. Mit Leidenschaftlichem Ausdruck
02. Allegretto
03. Lebhaft
Sonate Nr. 2 Für Violine Und Klavier D-moll Op. 121
04. Ziemlich Langsam – Lebhaft
05. Sehr Lebhaft
06. Leise, Einfach
07. Bewegt

Лог создания рипа

Exact Audio Copy V0.99 prebeta 5 from 4. May 2009
EAC extraction logfile from 28. August 2010, 23:05
Robert Schumann / Violin Sonatas Nos. 1 & 2 (feat. violin: Gidon Kremer, piano: Martha Argerich)
Used drive : ASUS DRW-24B1ST Adapter: 2 ID: 0
Read mode : Secure
Utilize accurate stream : Yes
Defeat audio cache : No
Make use of C2 pointers : No
Read offset correction : 6
Overread into Lead-In and Lead-Out : No
Fill up missing offset samples with silence : Yes
Delete leading and trailing silent blocks : No
Null samples used in CRC calculations : Yes
Used interface : Native Win32 interface for Win NT & 2000
Gap handling : Appended to previous track
Used output format : User Defined Encoder
Selected bitrate : 768 kBit/s
Quality : High
Add ID3 tag : No
Command line compressor : C:\Program Files (x86)\Exact Audio Copy\FLAC\FLAC.EXE
Additional command line options : -V -8 -T "artist=%a" -T "title=%t" -T "album=%g" -T "date=%y" -T "tracknumber=%n" -T "genre=%m" %s
TOC of the extracted CD
Track | Start | Length | Start sector | End sector
---------------------------------------------------------
1 | 0:00.33 | 7:27.25 | 33 | 33582
2 | 7:27.58 | 4:09.35 | 33583 | 52292
3 | 11:37.18 | 5:12.02 | 52293 | 75694
4 | 16:49.20 | 12:50.58 | 75695 | 133502
5 | 29:40.03 | 4:42.55 | 133503 | 154707
6 | 34:22.58 | 5:59.30 | 154708 | 181662
7 | 40:22.13 | 8:36.27 | 181663 | 220389
Track 1
Filename I:\Rip\Robert Schumann - 1986 - Violin Sonatas Nos. 1 & 2 (feat. violin- Gidon Kremer, piano- Martha Argerich)\01 - Sonata No. 1 for Violin and Piano in A minor- I. Mit leidenschaftlichem Ausdruck.wav
Pre-gap length 0:00:02.33
Peak level 86.5 %
Track quality 100.0 %
Test CRC 00422C2A
Copy CRC 00422C2A
Accurately ripped (confidence 19) [97175D3E]
Copy OK
Track 2
Filename I:\Rip\Robert Schumann - 1986 - Violin Sonatas Nos. 1 & 2 (feat. violin- Gidon Kremer, piano- Martha Argerich)\02 - Sonata No. 1 for Violin and Piano in A minor- II. Allegretto.wav
Pre-gap length 0:00:03.43
Peak level 61.3 %
Track quality 100.0 %
Test CRC 6A10CECF
Copy CRC 6A10CECF
Accurately ripped (confidence 19) [7AD0133A]
Copy OK
Track 3
Filename I:\Rip\Robert Schumann - 1986 - Violin Sonatas Nos. 1 & 2 (feat. violin- Gidon Kremer, piano- Martha Argerich)\03 - Sonata No. 1 for Violin and Piano in A minor- III. Lebhaft.wav
Pre-gap length 0:00:02.50
Peak level 84.5 %
Track quality 100.0 %
Test CRC DE7466C7
Copy CRC DE7466C7
Accurately ripped (confidence 19) [0EBA9E6E]
Copy OK
Track 4
Filename I:\Rip\Robert Schumann - 1986 - Violin Sonatas Nos. 1 & 2 (feat. violin- Gidon Kremer, piano- Martha Argerich)\04 - Sonata No. 2 for Violin and Piano in D minor- I. Ziemlich langsam - Lebhaft.wav
Pre-gap length 0:00:11.05
Peak level 91.7 %
Track quality 100.0 %
Test CRC 1667ACC1
Copy CRC 1667ACC1
Accurately ripped (confidence 19) [397245BF]
Copy OK
Track 5
Filename I:\Rip\Robert Schumann - 1986 - Violin Sonatas Nos. 1 & 2 (feat. violin- Gidon Kremer, piano- Martha Argerich)\05 - Sonata No. 2 for Violin and Piano in D minor- II. Sehr lebhaft.wav
Pre-gap length 0:00:07.05
Peak level 91.8 %
Track quality 100.0 %
Test CRC 48E01E2C
Copy CRC 48E01E2C
Accurately ripped (confidence 19) [068FA800]
Copy OK
Track 6
Filename I:\Rip\Robert Schumann - 1986 - Violin Sonatas Nos. 1 & 2 (feat. violin- Gidon Kremer, piano- Martha Argerich)\06 - Sonata No. 2 for Violin and Piano in D minor- III. Leise, einfach.wav
Pre-gap length 0:00:05.53
Peak level 76.6 %
Track quality 100.0 %
Test CRC 8A7058C7
Copy CRC 8A7058C7
Accurately ripped (confidence 19) [719EE159]
Copy OK
Track 7
Filename I:\Rip\Robert Schumann - 1986 - Violin Sonatas Nos. 1 & 2 (feat. violin- Gidon Kremer, piano- Martha Argerich)\07 - Sonata No. 2 for Violin and Piano in D minor- IV. Bewegt.wav
Pre-gap length 0:00:07.10
Peak level 81.9 %
Track quality 99.9 %
Test CRC DCECC687
Copy CRC DCECC687
Accurately ripped (confidence 16) [3CCADD78]
Copy OK
All tracks accurately ripped
No errors occurred
End of status report

Содержание индексной карты (.CUE)

REM GENRE Classical
REM DATE 1986
REM DISCID 580B7A07
REM COMMENT "ExactAudioCopy v0.99pb5"
PERFORMER "Robert Schumann"
TITLE "Violin Sonatas Nos. 1 & 2 (feat. violin: Gidon Kremer, piano: Martha Argerich)"
FILE "Robert Schumann - 1986 - Violin Sonatas Nos. 1 & 2 (feat. violin- Gidon Kremer, piano- Martha Argerich)\01 - Sonata No. 1 for Violin and Piano in A minor- I. Mit leidenschaftlichem Ausdruck.wav" WAVE
TRACK 01 AUDIO
TITLE "Sonata No. 1 for Violin and Piano in A minor: I. Mit leidenschaftlichem Ausdruck"
PERFORMER "Robert Schumann"
PREGAP 00:00:33
INDEX 01 00:00:00
TRACK 02 AUDIO
TITLE "Sonata No. 1 for Violin and Piano in A minor: II. Allegretto"
PERFORMER "Robert Schumann"
INDEX 00 07:23:57
FILE "Robert Schumann - 1986 - Violin Sonatas Nos. 1 & 2 (feat. violin- Gidon Kremer, piano- Martha Argerich)\02 - Sonata No. 1 for Violin and Piano in A minor- II. Allegretto.wav" WAVE
INDEX 01 00:00:00
TRACK 03 AUDIO
TITLE "Sonata No. 1 for Violin and Piano in A minor: III. Lebhaft"
PERFORMER "Robert Schumann"
INDEX 00 04:06:60
FILE "Robert Schumann - 1986 - Violin Sonatas Nos. 1 & 2 (feat. violin- Gidon Kremer, piano- Martha Argerich)\03 - Sonata No. 1 for Violin and Piano in A minor- III. Lebhaft.wav" WAVE
INDEX 01 00:00:00
TRACK 04 AUDIO
TITLE "Sonata No. 2 for Violin and Piano in D minor: I. Ziemlich langsam - Lebhaft"
PERFORMER "Robert Schumann"
INDEX 00 05:00:72
FILE "Robert Schumann - 1986 - Violin Sonatas Nos. 1 & 2 (feat. violin- Gidon Kremer, piano- Martha Argerich)\04 - Sonata No. 2 for Violin and Piano in D minor- I. Ziemlich langsam - Lebhaft.wav" WAVE
INDEX 01 00:00:00
TRACK 05 AUDIO
TITLE "Sonata No. 2 for Violin and Piano in D minor: II. Sehr lebhaft"
PERFORMER "Robert Schumann"
INDEX 00 12:43:53
FILE "Robert Schumann - 1986 - Violin Sonatas Nos. 1 & 2 (feat. violin- Gidon Kremer, piano- Martha Argerich)\05 - Sonata No. 2 for Violin and Piano in D minor- II. Sehr lebhaft.wav" WAVE
INDEX 01 00:00:00
TRACK 06 AUDIO
TITLE "Sonata No. 2 for Violin and Piano in D minor: III. Leise, einfach"
PERFORMER "Robert Schumann"
INDEX 00 04:37:02
FILE "Robert Schumann - 1986 - Violin Sonatas Nos. 1 & 2 (feat. violin- Gidon Kremer, piano- Martha Argerich)\06 - Sonata No. 2 for Violin and Piano in D minor- III. Leise, einfach.wav" WAVE
INDEX 01 00:00:00
TRACK 07 AUDIO
TITLE "Sonata No. 2 for Violin and Piano in D minor: IV. Bewegt"
PERFORMER "Robert Schumann"
INDEX 00 05:52:20
FILE "Robert Schumann - 1986 - Violin Sonatas Nos. 1 & 2 (feat. violin- Gidon Kremer, piano- Martha Argerich)\07 - Sonata No. 2 for Violin and Piano in D minor- IV. Bewegt.wav" WAVE
INDEX 01 00:00:00



Показать сообщения:    

Текущее время: 04-Дек 15:17

Часовой пояс: UTC + 3


Вы не можете начинать темы
Вы не можете отвечать на сообщения
Вы не можете редактировать свои сообщения
Вы не можете удалять свои сообщения
Вы не можете голосовать в опросах
Вы не можете прикреплять файлы к сообщениям
Вы не можете скачивать файлы