(Classical) Jean Sibelius - Complete Works for Mixed Choir - Estonian Philharmonic Chamber Choir, Heikki Seppanen - 2015, FLAC (image+.cue) lossless


Статистика раздачи [Обновить пиров]
Размер:  373 MB   |    Зарегистрирован:  8 месяцев 19 дней   |    Скачан:  0 раз

Полного источника не было: Никогда

 
   
 
 
 

[Цитировать]

Jean Sibelius - Complete Works for Mixed Choir - Estonian Philharmonic Chamber Choir, Heikki Seppänen
Жанр: Classical
Страна-производитель диска: Finland
Год издания диска: 2015
Издатель (лейбл): Ondine
Номер по каталогу: ODE 1260-2D
Дата записи: 2014
Аудиокодек: FLAC
Тип рипа: image+.cue
Битрейт аудио: lossless
Продолжительность: 1:43:51
Источник: собственный рип
Наличие сканов в содержимом раздачи: да
Треклист:
Jean Sibelius
Complete Works for Mixed Choir

CD1

[1] Rakastava (The Lover)
[2] Sortunut ääni (The Voice Now Stilled), Op. 18 No. 1
[3] Venematka (The Journey by Boat), Op. 18 No. 3
[4] Saarella palaa (Fire on the Island), Op. 18 No. 4
[5] Sydämeni laulu (Glade of Tuoni), Op. 18 No. 6
[6] Min rastas raataa (Where the Thrush Toils)
[7]-[9] Carminalia (version a cappella)
[10]-[12] Carminalia (version with harmonium)
[13]-[15] Carminalia (version with piano)
[16] Kotikaipaus (Homesickness)
[17] Isänmaalle (To the Fatherland)
[18] Hur blekt är allt (So Faded Everything Is)
[19] När sig våren åter föder (When Spring is Born Again)
[20] Tanke, se hur fågeln svingar (Thought, See how the Bird Swoops)
[21] Ensam i dunkla skogarnas famn (Alone in the Dark Forest’s Clasp)
[22] Ack hör du fröken Gyllenborg (Ah! Listen, Miss Gyllenborg)
[23] Työkansan marssi (The March of the Labourers)
[24] Soitapas sorea neito (Play Pretty Maiden)
[25] Juhlamarssi (Festive March)
[26] Aamusumussa (In the Morning Mist)
[27] Uusmaalaisten laulu (The Song of the Men of Uusimaa)
[28] Kallion kirkon sävel (The Bells of Kallio Church), Op. 65b
[29] Drömmarna (Dreams)
[30] Män från slätten och havet (Men from Plain and Sea), Op. 65a

CD2

Songs for Mixed Choir from the 1897 Promotion Cantata, Op. 23
[1] I. Me nuoriso Suomen
[2] II. Tuuli tuudittele
[3] III. Oi toivo, toivo, sa lietomieli
[4] IV. Montapa elon merellä
[5] V. Jalo toimi ja korkea tieto on vaan
[6] VIa. Soi kiitokseksi Luojan
[7] VIb. Tuule, tuuli leppeämmin
[8] VII. Oi Lempi, sun valtas ääretön on
[9] VIII. Kun virta vuolas
[10] IX. Oi, kallis Suomi, äiti verraton
[11] Den 25 Oktober 1902 [1]
[12] Den 25 Oktober 1902 [2]
[13] Ej med klagan (Not with Laments)
[14] Kansankoululaisten marssi (March of the Primary School Children)
[15] Kantat (Cantata)
[16] Nejden andas (The Landscape Breathes), from Op.30
[17] Terve Ruhtinatar (Hail, O Princess), from Cantata JS 104
Three Songs for American School
[18] The Sun Upon The Lake is Low
[19] A Cavalry Catch
[20] Autumn Song
[21] Koulutie (The Way to School)
[22] Skolsång (School Song)
[23] Den höga himlen och den vida jorden (The Lofty Heav’n)
[24] On lapsonen syntynyt meille (A Child is Born Unto Us)
[25] Joululaulu (A Christmas Song), Op. 1 No. 4
[26] On hanget korkeat nietokset (High are the Snowdrifts), Op. 1 No. 5
[27] Finlandia Hymn in F major (from Op. 26)
[28] Finlandia Hymn in A flat major (from Op. 26)
Исполнители:
Estonian Philharmonic Chamber Choir
Heikki Seppänen

Лог создания рипа: CD1

Exact Audio Copy V1.0 beta 3 from 29. August 2011
EAC extraction logfile from 11. June 2015, 22:54
Estonian Philharmonic Chamber Choir, Heikki Seppänen / Sibelius - Complete Works for Mixed Choir - CD1
Used drive : HL-DT-STDVDRAM GU70N Adapter: 0 ID: 0
Read mode : Secure
Utilize accurate stream : Yes
Defeat audio cache : Yes
Make use of C2 pointers : No
Read offset correction : 48
Overread into Lead-In and Lead-Out : No
Fill up missing offset samples with silence : Yes
Delete leading and trailing silent blocks : No
Null samples used in CRC calculations : Yes
Used interface : Native Win32 interface for Win NT & 2000
Used output format : User Defined Encoder
Selected bitrate : 128 kBit/s
Quality : High
Add ID3 tag : No
Command line compressor : C:\Program Files (x86)\Exact Audio Copy\Flac\flac.exe
Additional command line options : -V -8 -T "Date=%year%" -T "Genre=%genre%" %source%
TOC of the extracted CD
Track | Start | Length | Start sector | End sector
---------------------------------------------------------
1 | 0:00.00 | 6:30.04 | 0 | 29253
2 | 6:30.04 | 1:29.16 | 29254 | 35944
3 | 7:59.20 | 1:49.39 | 35945 | 44158
4 | 9:48.59 | 1:18.23 | 44159 | 50031
5 | 11:07.07 | 3:00.64 | 50032 | 63595
6 | 14:07.71 | 1:15.74 | 63596 | 69294
7 | 15:23.70 | 0:48.69 | 69295 | 72963
8 | 16:12.64 | 0:28.63 | 72964 | 75126
9 | 16:41.52 | 0:42.67 | 75127 | 78343
10 | 17:24.44 | 0:54.58 | 78344 | 82451
11 | 18:19.27 | 0:28.12 | 82452 | 84563
12 | 18:47.39 | 0:43.36 | 84564 | 87824
13 | 19:31.00 | 0:51.54 | 87825 | 91703
14 | 20:22.54 | 0:30.16 | 91704 | 93969
15 | 20:52.70 | 0:46.22 | 93970 | 97441
16 | 21:39.17 | 1:22.14 | 97442 | 103605
17 | 23:01.31 | 2:09.51 | 103606 | 113331
18 | 25:11.07 | 0:32.59 | 113332 | 115790
19 | 25:43.66 | 0:35.64 | 115791 | 118479
20 | 26:19.55 | 1:15.07 | 118480 | 124111
21 | 27:34.62 | 2:18.22 | 124112 | 134483
22 | 29:53.09 | 0:34.37 | 134484 | 137070
23 | 30:27.46 | 2:20.28 | 137071 | 147598
24 | 32:47.74 | 1:22.64 | 147599 | 153812
25 | 34:10.63 | 2:57.21 | 153813 | 167108
26 | 37:08.09 | 1:49.11 | 167109 | 175294
27 | 38:57.20 | 2:34.60 | 175295 | 186904
28 | 41:32.05 | 2:25.70 | 186905 | 197849
29 | 43:58.00 | 1:33.37 | 197850 | 204861
30 | 45:31.37 | 5:38.33 | 204862 | 230244
Range status and errors
Selected range
Filename C:\temp\Sibelius - Complete Works for Mixed Choir\CD1\Sibelius - Complete Works for Mixed Choir - CD1.wav
Peak level 90.1 %
Extraction speed 5.0 X
Range quality 100.0 %
Test CRC 86B9C7B8
Copy CRC 86B9C7B8
Copy OK
No errors occurred
AccurateRip summary
Track 1 not present in database
Track 2 not present in database
Track 3 not present in database
Track 4 not present in database
Track 5 not present in database
Track 6 not present in database
Track 7 not present in database
Track 8 not present in database
Track 9 not present in database
Track 10 not present in database
Track 11 not present in database
Track 12 not present in database
Track 13 not present in database
Track 14 not present in database
Track 15 not present in database
Track 16 not present in database
Track 17 not present in database
Track 18 not present in database
Track 19 not present in database
Track 20 not present in database
Track 21 not present in database
Track 22 not present in database
Track 23 not present in database
Track 24 not present in database
Track 25 not present in database
Track 26 not present in database
Track 27 not present in database
Track 28 not present in database
Track 29 not present in database
Track 30 not present in database
None of the tracks are present in the AccurateRip database
End of status report
==== Log checksum 1AA7EA8A05B7BFCC4A1D22DD442AD768D138F18F7F68E1DCC17DC1DFDF217709 ====

Лог создания рипа: CD2

Exact Audio Copy V1.0 beta 3 from 29. August 2011
EAC extraction logfile from 11. June 2015, 23:33
Estonian Philharmonic Chamber Choir, Heikki Seppänen / Sibelius - Complete Works for Mixed Choir - CD2
Used drive : HL-DT-STDVDRAM GU70N Adapter: 0 ID: 0
Read mode : Secure
Utilize accurate stream : Yes
Defeat audio cache : Yes
Make use of C2 pointers : No
Read offset correction : 48
Overread into Lead-In and Lead-Out : No
Fill up missing offset samples with silence : Yes
Delete leading and trailing silent blocks : No
Null samples used in CRC calculations : Yes
Used interface : Native Win32 interface for Win NT & 2000
Used output format : User Defined Encoder
Selected bitrate : 128 kBit/s
Quality : High
Add ID3 tag : No
Command line compressor : C:\Program Files (x86)\Exact Audio Copy\Flac\flac.exe
Additional command line options : -V -8 -T "Date=%year%" -T "Genre=%genre%" %source%
TOC of the extracted CD
Track | Start | Length | Start sector | End sector
---------------------------------------------------------
1 | 0:00.00 | 2:36.18 | 0 | 11717
2 | 2:36.18 | 2:14.32 | 11718 | 21799
3 | 4:50.50 | 1:15.64 | 21800 | 27488
4 | 6:06.39 | 0:58.37 | 27489 | 31875
5 | 7:05.01 | 2:00.73 | 31876 | 40948
6 | 9:05.74 | 1:31.19 | 40949 | 47792
7 | 10:37.18 | 2:41.60 | 47793 | 59927
8 | 13:19.03 | 2:17.09 | 59928 | 70211
9 | 15:36.12 | 2:29.67 | 70212 | 81453
10 | 18:06.04 | 1:24.72 | 81454 | 87825
11 | 19:31.01 | 2:13.68 | 87826 | 97868
12 | 21:44.69 | 2:15.23 | 97869 | 108016
13 | 24:00.17 | 1:12.35 | 108017 | 113451
14 | 25:12.52 | 1:45.73 | 113452 | 121399
15 | 26:58.50 | 2:58.54 | 121400 | 134803
16 | 29:57.29 | 0:36.44 | 134804 | 137547
17 | 30:33.73 | 0:55.05 | 137548 | 141677
18 | 31:29.03 | 0:45.09 | 141678 | 145061
19 | 32:14.12 | 0:49.05 | 145062 | 148741
20 | 33:03.17 | 0:48.01 | 148742 | 152342
21 | 33:51.18 | 4:41.12 | 152343 | 173429
22 | 38:32.30 | 0:50.27 | 173430 | 177206
23 | 39:22.57 | 2:39.24 | 177207 | 189155
24 | 42:02.06 | 2:26.51 | 189156 | 200156
25 | 44:28.57 | 2:18.13 | 200157 | 210519
26 | 46:46.70 | 1:53.64 | 210520 | 219058
27 | 48:40.59 | 2:05.51 | 219059 | 228484
28 | 50:46.35 | 1:51.46 | 228485 | 236855
Range status and errors
Selected range
Filename C:\temp\Sibelius - Complete Works for Mixed Choir\CD2\Sibelius - Complete Works for Mixed Choir - CD2.wav
Peak level 89.4 %
Extraction speed 5.1 X
Range quality 100.0 %
Test CRC DD5F86EA
Copy CRC DD5F86EA
Copy OK
No errors occurred
AccurateRip summary
Track 1 not present in database
Track 2 not present in database
Track 3 not present in database
Track 4 not present in database
Track 5 not present in database
Track 6 not present in database
Track 7 not present in database
Track 8 not present in database
Track 9 not present in database
Track 10 not present in database
Track 11 not present in database
Track 12 not present in database
Track 13 not present in database
Track 14 not present in database
Track 15 not present in database
Track 16 not present in database
Track 17 not present in database
Track 18 not present in database
Track 19 not present in database
Track 20 not present in database
Track 21 not present in database
Track 22 not present in database
Track 23 not present in database
Track 24 not present in database
Track 25 not present in database
Track 26 not present in database
Track 27 not present in database
Track 28 not present in database
None of the tracks are present in the AccurateRip database
End of status report
==== Log checksum CC04E0D5094FDCAB068ED57042D3E018DA6CC7750BE19BB34B93C30AC1388EF1 ====
[teatrix.ru].t23101.torrent 
Торрент: Зарегистрирован [ 2016-03-21 00:33 ] · 96DA9AD2A86B6C3415ECEB3754D9663E9815F2B2

Скачать .torrent

Скачать

31 KB

Статус: проверено
Скачан: 0 раз
Размер: 373 MB
terms.php



Быстрый ответ

Имя:

      
Для отправки сообщений необходимо включить JavaScript
Показать сообщения:    

Текущее время: 09-Дек 12:46

Часовой пояс: UTC + 3


Вы можете начинать темы
Вы можете отвечать на сообщения
Вы не можете редактировать свои сообщения
Вы не можете удалять свои сообщения
Вы не можете голосовать в опросах
Вы не можете прикреплять файлы к сообщениям
Вы можете скачивать файлы