Кэрол / Carol (Тодд Хейнс / Todd Haynes) [2015, Великобритания, США, мелодрама, BDRip 1080p] DVO (Паровоз Продакшн) + Sub Rus, Eng + Original Eng


 

[Цитировать]

Кэрол / Carol
Страна: Великобритания, США
Студия: Film4, Killer Films, Number 9 Films при участии Dirty Films
Жанр: мелодрама
Год выпуска: 2015
Продолжительность: 01:58:50
Перевод: Любительский (двухголосый закадровый) Паровоз Продакшн
Cубтитры: русские, английские
Оригинальная аудиодорожка: английский
Режиссер: Тодд Хейнс / Todd Haynes
В ролях: Кейт Бланшетт, Руни Мара, Кайл Чандлер, Джейк Лэси, Сара Полсон и др.
Описание: В неповторимой атмосфере изысканного Нью-Йорка 50-х годов юная Терез встречает Кэрол, ослепительную зрелую женщину, томящуюся в браке без любви. Мимолетный проблеск влечения перерастает во всепоглощающее чувство, которое навсегда изменит их жизни. Но как довериться любви, если твоя судьба зависит от предрассудков безжалостного времени?

Тип релиза: BDRip 1080p
Контейнер: MKV
Видео: MPEG4 AVC (H264) 1920x1036 (1.85:1) 23.976 fps 15.0 Mbps
Аудио 1: Russian AC3 48 kHz 2ch 192 kbps - двухголосый закадровый
Аудио 2: English DTS 48 kHz 6ch 1509 kbps - оригинал
Субтитры 1: Russian SRT UTF-8
Субтитры 2: English SRT UTF-8
Меню: навигация по главам

MediaInfo

General
Unique ID : 181375659043319607448598806268172110954 (0x8873AE693F5E34D6A02D4FFFFB0D0C6A)
Complete name : Carol.2015.1080p.BDRip.mkv
Format : Matroska
Format version : Version 4 / Version 2
File size : 13.8 GiB
Duration : 1h 58mn
Overall bit rate : 16.7 Mbps
Movie name : Carol (2015)
Encoded date : UTC 2016-02-25 01:05:15
Writing application : mkvmerge v8.8.0 ('Wind at my back') 64bit
Writing library : libebml v1.3.3 + libmatroska v1.4.4
DURATION : 01:49:58.402000000
NUMBER_OF_FRAMES : 1459
NUMBER_OF_BYTES : 37988
Video
ID : 1
Format : AVC
Format/Info : Advanced Video Codec
Format profile : High@L4.1
Format settings, CABAC : Yes
Format settings, ReFrames : 4 frames
Codec ID : V_MPEG4/ISO/AVC
Duration : 1h 58mn
Bit rate : 15.0 Mbps
Width : 1 920 pixels
Height : 1 036 pixels
Display aspect ratio : 1.85:1
Frame rate mode : Constant
Frame rate : 23.976 fps
Color space : YUV
Chroma subsampling : 4:2:0
Bit depth : 8 bits
Scan type : Progressive
Bits/(Pixel*Frame) : 0.315
Stream size : 12.2 GiB (88%)
Writing library : x264 core 142 r2431+42 c69a006 tMod [8-bit@all X86_64]
Encoding settings : cabac=1 / ref=4 / deblock=1:-3:-3 / analyse=0x3:0x133 / me=umh / subme=11 / psy=1 / fade_compensate=0.00 / psy_rd=0.90:0.00 / mixed_ref=1 / me_range=32 / chroma_me=1 / trellis=2 / 8x8dct=1 / cqm=0 / deadzone=21,11 / fast_pskip=0 / chroma_qp_offset=-2 / threads=12 / lookahead_threads=2 / sliced_threads=0 / nr=0 / decimate=0 / interlaced=0 / bluray_compat=0 / constrained_intra=0 / fgo=0 / bframes=8 / b_pyramid=2 / b_adapt=2 / b_bias=0 / direct=3 / weightb=1 / open_gop=0 / weightp=2 / keyint=240 / keyint_min=23 / scenecut=40 / intra_refresh=0 / rc_lookahead=60 / rc=2pass / mbtree=0 / bitrate=15000 / ratetol=1.0 / qcomp=0.60 / qpmin=0:0:0 / qpmax=69:69:69 / qpstep=4 / cplxblur=20.0 / qblur=0.5 / vbv_maxrate=40000 / vbv_bufsize=30000 / nal_hrd=none / filler=0 / ip_ratio=1.40 / pb_ratio=1.30 / aq=1:0.90 / aq-sensitivity=10.00 / aq-factor=1.00:1.00:1.00 / aq2=0 / aq3=0
Language : English
Default : Yes
Forced : Yes
Audio #1
ID : 2
Format : AC-3
Format/Info : Audio Coding 3
Mode extension : CM (complete main)
Format settings, Endianness : Big
Codec ID : A_AC3
Duration : 1h 58mn
Bit rate mode : Constant
Bit rate : 192 Kbps
Channel(s) : 2 channels
Channel positions : Front: L R
Sampling rate : 48.0 KHz
Compression mode : Lossy
Stream size : 163 MiB (1%)
Language : Russian
Default : No
Forced : No
Audio #2
ID : 3
Format : DTS
Format/Info : Digital Theater Systems
Mode : 16
Format settings, Endianness : Big
Codec ID : A_DTS
Duration : 1h 58mn
Bit rate mode : Constant
Bit rate : 1 509 Kbps
Channel(s) : 6 channels
Channel positions : Front: L C R, Side: L R, LFE
Sampling rate : 48.0 KHz
Bit depth : 24 bits
Compression mode : Lossy
Stream size : 1.25 GiB (9%)
Language : English
Default : Yes
Forced : Yes
Text #1
ID : 4
Format : UTF-8
Codec ID : S_TEXT/UTF8
Codec ID/Info : UTF-8 Plain Text
Language : Russian
Default : Yes
Forced : No
Text #2
ID : 5
Format : UTF-8
Codec ID : S_TEXT/UTF8
Codec ID/Info : UTF-8 Plain Text
Language : English
Default : No
Forced : No
Menu
00:00:00.000 : en:Chapter 01
00:05:59.150 : en:Chapter 02
00:13:10.039 : en:Chapter 03
00:19:29.543 : en:Chapter 04
00:25:16.640 : en:Chapter 05
00:30:49.514 : en:Chapter 06
00:37:59.652 : en:Chapter 07
00:45:16.422 : en:Chapter 08
00:52:17.217 : en:Chapter 09
00:59:22.475 : en:Chapter 10
01:06:21.727 : en:Chapter 11
01:13:15.641 : en:Chapter 12
01:18:26.743 : en:Chapter 13
01:24:30.774 : en:Chapter 14
01:31:54.759 : en:Chapter 15
01:38:33.699 : en:Chapter 16
01:44:20.587 : en:Chapter 17
01:48:59.699 : en:Chapter 18
01:52:14.602 : en:Chapter 19
01:54:27.986 : en:Chapter 20
01:58:28.017 : en:Chapter 21

Доп. инфо

Фильм снят на 16-миллиметровую киноплёнку, отсюда зерно и не слишком высокая для 1080p детализация изображения.

Скриншоты




Показать сообщения:    

Текущее время: 11-Дек 07:09

Часовой пояс: UTC + 3


Вы не можете начинать темы
Вы не можете отвечать на сообщения
Вы не можете редактировать свои сообщения
Вы не можете удалять свои сообщения
Вы не можете голосовать в опросах
Вы не можете прикреплять файлы к сообщениям
Вы не можете скачивать файлы