Мечтатели / The Dreamers (Бернардо Бертолуччи / Bernardo Bertolucci) [2003, Франция, Италия, Великобритания, мелодрама, эротика, BDRip-AVC] MVO (НТВ+ по заказу НТВ) + Original Eng


 

[Цитировать]

Мечтатели
The Dreamers

Страна: Франция, Италия, Великобритания
Жанр: мелодрама, эротика
Год выпуска: 2003
Продолжительность: 01:54:37-Перевод: Профессиональный (многоголосый закадровый)
НТВ+ по заказу НТВ

Текст читали: Наталья Казначеева, Марина Тарасова, Вячеслав Баранов, Василий Зотов, Никита Прозоровский
Cубтитры: нет
Оригинальная аудиодорожка: английский-Режиссер: Бернардо Бертолуччи / Bernardo Bertolucci
В ролях: Майкл Питт, Ева Грин, Луи Гаррель, Анна Чэнселлор, Робен Ренуччи, Жан-Пьер Кальфон, Жан-Пьер Лео, Флориан Кадиу, Пьер Ханчиссе, Валентен Мерле, Лола Пиплоу-Описание: Весной 1968-ого в Париже царит атмосфера свободы: студенческие и рабочие забастовки, политические волнения, сексуальная раскрепощенность. Молодой американец Мэттью знакомится с Тео и его сестрой Изабель, и приходит к ним в дом, чтобы поговорить о кино. Пока родители подростков дома отсутствуют, близнецы вытащат из их американского застенчивого гостя всю сексуальную энергию и погрузят с головой в свой киноманский и свободный от каких-либо правил мир-Доп. информация:
О переводе: Перевод на трекере появляется впервые
Есть несколько вставок из DVD R5
Звук качеством "не страдает"
-Сэмпл: минута58сек-Качество видео: BDRip (BDRemux от Temperest | Korean transfer / с рутора)
Формат видео: MKV
Видео: AVC, 1072х600, 16:9, 23,976 кадра/сек, 1340 Кбит/сек
Аудио 1: AC-3, 48,0 КГц, 192 Кбит/сек, 2 канала (многоголосый НТВ+ по заказу НТВ)
Аудио 2: AC-3, 48,0 КГц, 192 Кбит/сек, 2 канала (английская оригинальная дорожка)

MediaInfox264.log

avs4x26x.exe: -L x264_64.exe --pass 2 --bitrate 1340 --preset veryslow --profile high --level 4.1 --aq-mode 2 --bframes 10 --threads 2 --partitions p8x8,b8x8,i8x8,i4x4 --subme 9 --lookahead-threads 2 --keyint 300 --sar 1:1
raw [info]: 1072x600p 1:1 @ 24000/1001 fps (cfr)
x264 [info]: using SAR=1/1
x264 [info]: using cpu capabilities: MMX2 SSE2Fast SSSE3 SSE4.1 Cache64
x264 [info]: profile High, level 4.1
x264 [info]: frame I:882 Avg QP:20.94 size: 64453
x264 [info]: frame P:31520 Avg QP:24.17 size: 17131
x264 [info]: frame B:132489 Avg QP:26.97 size: 4191
x264 [info]: consecutive B-frames: 1.0% 1.6% 5.7% 13.1% 11.0% 51.9% 5.4% 1.3% 4.7% 1.9% 2.6%
x264 [info]: mb I I16..4: 10.2% 79.1% 10.7%
x264 [info]: mb P I16..4: 1.6% 7.3% 0.7% P16..4: 45.4% 17.3% 9.8% 0.0% 0.0% skip:17.9%
x264 [info]: mb B I16..4: 0.1% 0.5% 0.0% B16..8: 46.7% 4.8% 1.0% direct: 1.9% skip:45.0% L0:46.7% L1:50.5% BI: 2.9%
x264 [info]: 8x8 transform intra:77.4% inter:72.2%
x264 [info]: direct mvs spatial:98.5% temporal:1.5%
x264 [info]: coded y,uvDC,uvAC intra: 78.8% 58.1% 19.6% inter: 12.7% 8.8% 0.3%
x264 [info]: i16 v,h,dc,p: 38% 14% 6% 41%
x264 [info]: i8 v,h,dc,ddl,ddr,vr,hd,vl,hu: 10% 5% 3% 12% 18% 16% 15% 12% 10%
x264 [info]: i4 v,h,dc,ddl,ddr,vr,hd,vl,hu: 15% 5% 2% 10% 16% 16% 14% 12% 11%
x264 [info]: i8c dc,h,v,p: 37% 25% 21% 18%
x264 [info]: Weighted P-Frames: Y:3.7% UV:1.3%
x264 [info]: ref P L0: 46.2% 14.4% 15.8% 5.2% 4.7% 3.2% 3.1% 1.5% 1.6% 1.3% 1.4% 1.3% 0.2% 0.0%
x264 [info]: ref B L0: 76.4% 10.3% 5.0% 2.3% 1.7% 1.4% 1.2% 0.6% 0.6% 0.4% 0.2%
x264 [info]: ref B L1: 93.2% 6.8%
x264 [info]: kb/s:1340.15
x264 [total]: encoded 164891 frames, 6.11 fps, 1340.15 kb/s
Общее
Уникальный идентификатор : 195750991989145810491962817104862487821 (0x9344450BD0C471E09BD437E0EB0BA50D)
Полное имя : Мечтатели.2003.BDRip.mkv
Формат : Matroska
Версия формата : Version 2
Размер файла : 1,38 Гбайт
Продолжительность : 1 ч. 54 м.
Общий поток : 1726 Кбит/сек
Название фильма : Мечтатели(The Dreamers).2003.BDRip / Korean transfer
Дата кодирования : UTC 2016-02-25 09:07:28
Программа кодирования : mkvmerge v8.3.0 ('Over the Horizon') 32bit
Библиотека кодирования : libebml v1.3.1 + libmatroska v1.4.2
Видео
Идентификатор : 1
Формат : AVC
Формат/Информация : Advanced Video Codec
Профиль формата : High@L4.1
Параметр CABAC формата : Да
Параметр ReFrames формата : 12 кадров
Идентификатор кодека : V_MPEG4/ISO/AVC
Продолжительность : 1 ч. 54 м.
Битрейт : 1340 Кбит/сек
Ширина : 1072 пикселя
Высота : 600 пикселей
Соотношение сторон : 16:9
Режим частоты кадров : Постоянный
Частота кадров : 23,976 (24000/1001) кадра/сек
Цветовое пространство : YUV
Субдискретизация насыщенности : 4:2:0
Битовая глубина : 8 бит
Тип развёртки : Прогрессивная
Бит/(Пиксели*Кадры) : 0.087
Размер потока : 1,05 Гбайт (76%)
Заголовок : Мечтатели(The Dreamers).2003.BDRip / Korean transfer
Библиотека кодирования : x264 core 146 r2538 121396c
Настройки программы : cabac=1 / ref=12 / deblock=1:0:0 / analyse=0x3:0x113 / me=umh / subme=9 / psy=1 / psy_rd=1.00:0.00 / mixed_ref=1 / me_range=24 / chroma_me=1 / trellis=2 / 8x8dct=1 / cqm=0 / deadzone=21,11 / fast_pskip=1 / chroma_qp_offset=-2 / threads=2 / lookahead_threads=2 / sliced_threads=0 / nr=0 / decimate=1 / interlaced=0 / bluray_compat=0 / constrained_intra=0 / bframes=10 / b_pyramid=2 / b_adapt=2 / b_bias=0 / direct=3 / weightb=1 / open_gop=0 / weightp=2 / keyint=300 / keyint_min=23 / scenecut=40 / intra_refresh=0 / rc_lookahead=60 / rc=2pass / mbtree=1 / bitrate=1340 / ratetol=1.0 / qcomp=0.60 / qpmin=0 / qpmax=69 / qpstep=4 / cplxblur=20.0 / qblur=0.5 / ip_ratio=1.40 / aq=2:1.00
Язык : English
Default : Да
Forced : Нет
Аудио #1
Идентификатор : 2
Формат : AC-3
Формат/Информация : Audio Coding 3
Расширение режима : CM (complete main)
Параметр Endianness формата : Big
Идентификатор кодека : A_AC3
Продолжительность : 1 ч. 54 м.
Вид битрейта : Постоянный
Битрейт : 192 Кбит/сек
Каналы : 2 канала
Расположение каналов : Front: L R
Частота : 48,0 КГц
Частота кадров : 31,250 кадров/сек (1536 spf)
Метод сжатия : С потерями
Размер потока : 157 Мбайт (11%)
Заголовок : многоголосый НТВ+ по заказу НТВ
Язык : Russian
Default : Да
Forced : Нет
Аудио #2
Идентификатор : 3
Формат : AC-3
Формат/Информация : Audio Coding 3
Расширение режима : CM (complete main)
Параметр Endianness формата : Big
Идентификатор кодека : A_AC3
Продолжительность : 1 ч. 54 м.
Вид битрейта : Постоянный
Битрейт : 192 Кбит/сек
Каналы : 2 канала
Расположение каналов : Front: L R
Частота : 48,0 КГц
Частота кадров : 31,250 кадров/сек (1536 spf)
Метод сжатия : С потерями
Размер потока : 157 Мбайт (11%)
Заголовок : оригинал
Язык : English
Default : Нет
Forced : Нет

Скриншот c названием фильма




Показать сообщения:    

Текущее время: 03-Дек 20:44

Часовой пояс: UTC + 3


Вы не можете начинать темы
Вы не можете отвечать на сообщения
Вы не можете редактировать свои сообщения
Вы не можете удалять свои сообщения
Вы не можете голосовать в опросах
Вы не можете прикреплять файлы к сообщениям
Вы не можете скачивать файлы