Сочувствие госпоже Месть / Chinjeolhan geumjassi / Sympathy for Lady Vengeance (Пак Чхан Ук / Park Chan Wook) [2005, Южная Корея, драма, криминал, HDRip] Dub (Cinema Prestige) + DVO (Tycoon) + Original Kor


 

[Цитировать]

Сочувствие госпоже Месть / Chinjeolhan geumjassi / Sympathy for Lady Vengeance
«Иду за тобой»
Страна: Южная Корея
Жанр: драма, криминал
Год выпуска: 2005
Продолжительность: 01:55:05
Перевод 1: Профессиональный (дублированный) - Cinema Prestige
Перевод 2: Профессиональный (двухголосый закадровый) - Tycoon
Cубтитры: нет
Оригинальная аудиодорожка: корейская
Режиссер: Пак Чхан Ук / Park Chan Wook
В ролях: Ли Ён Э, Чхве Мин Сик, Ким Ши Ху, Квон Йе Ён, Тони Бэрри, Энн Кординер, Го Су Хи, Кан Хё Чжон, Ким Пу Сон, Ким Пён Ок.
Описание: Гым Чжа Ли в 19 лет попадает в тюрьму по ложному обвинению в похищении и убийстве ребенка. В тюрьме она задумывает план мести и завоевывает сердца заключенных собственной добротой, получив имя «Сердечная госпожа Гым Чжа». Отсидев 13 лет, Гым Чжа отправляется разыскивать преступника с помощью своих давних тюремных товарищей.

Доп. информация:
Исходник - BDRip 720p из раздачи torentul (Kinozal)
Корейская аудиодорожка позаимствована из релиза alexina (Kinozal)

Качество видео: HDRip
Формат видео: AVI
Видео: 720x304 (2.37:1), 23.976 fps, XviD build 50 ~1413 kbps avg, 0.27 bit/pixel
Аудио 1: 48 kHz, MPEG Layer 3, 2 ch, ~128.00 kbps avg - Dub [Cinema Prestige]
Аудио 2: 48 kHz, MPEG Layer 3, 2 ch, ~128.00 kbps avg - DVO [Tycoon]
Аудио 3: 48 kHz, MPEG Layer 3, 2 ch, ~128.00 kbps avg - Original

MediaInfo

General
Complete name : D:\Public\Sochuvstvie.gospozhe.Mest.(2005).HDRip.(dub, dvo, kor).avi
Format : AVI
Format/Info : Audio Video Interleave
File size : 1.46 GiB
Duration : 1h 55mn
Overall bit rate : 1 818 Kbps
Writing application : VirtualDubMod 1.5.10.2 (build 2542/release)
Writing library : VirtualDubMod build 2542/release
Video
ID : 0
Format : MPEG-4 Visual
Format profile : Advanced Simple@L5
Format settings, BVOP : 1
Format settings, QPel : No
Format settings, GMC : No warppoints
Format settings, Matrix : Custom
Codec ID : XVID
Codec ID/Hint : XviD
Duration : 1h 55mn
Bit rate : 1 416 Kbps
Width : 720 pixels
Height : 304 pixels
Display aspect ratio : 2.35:1
Frame rate : 23.976 fps
Color space : YUV
Chroma subsampling : 4:2:0
Bit depth : 8 bits
Scan type : Progressive
Compression mode : Lossy
Bits/(Pixel*Frame) : 0.270
Stream size : 1.14 GiB (78%)
Writing library : XviD 1.2.1 (UTC 2008-12-04)
Audio #1
ID : 1
Format : MPEG Audio
Format version : Version 1
Format profile : Layer 3
Codec ID : 55
Codec ID/Hint : MP3
Duration : 1h 55mn
Bit rate mode : Constant
Bit rate : 128 Kbps
Channel(s) : 2 channels
Sampling rate : 48.0 KHz
Compression mode : Lossy
Stream size : 105 MiB (7%)
Alignment : Aligned on interleaves
Interleave, duration : 42 ms (1.00 video frame)
Interleave, preload duration : 504 ms
Title : Dub [Cinema Prestige]
Writing library : LAME3.98r
Encoding settings : -m s -V 4 -q 2 -lowpass 17 -b 128
Audio #2
ID : 2
Format : MPEG Audio
Format version : Version 1
Format profile : Layer 3
Codec ID : 55
Codec ID/Hint : MP3
Duration : 1h 55mn
Bit rate mode : Constant
Bit rate : 128 Kbps
Channel(s) : 2 channels
Sampling rate : 48.0 KHz
Compression mode : Lossy
Stream size : 105 MiB (7%)
Alignment : Aligned on interleaves
Interleave, duration : 42 ms (1.00 video frame)
Interleave, preload duration : 504 ms
Title : DVO [Tycoon]
Writing library : LAME3.98r
Encoding settings : -m s -V 4 -q 2 -lowpass 17 -b 128
Audio #3
ID : 3
Format : MPEG Audio
Format version : Version 1
Format profile : Layer 3
Codec ID : 55
Codec ID/Hint : MP3
Duration : 1h 55mn
Bit rate mode : Constant
Bit rate : 128 Kbps
Channel(s) : 2 channels
Sampling rate : 48.0 KHz
Compression mode : Lossy
Stream size : 105 MiB (7%)
Alignment : Aligned on interleaves
Interleave, duration : 42 ms (1.00 video frame)
Interleave, preload duration : 504 ms
Title : Original
Writing library : LAME3.98r
Encoding settings : -m s -V 4 -q 2 -lowpass 17 -b 128

Скриншот c названием фильма

Скриншоты




Показать сообщения:    

Текущее время: 08-Дек 09:03

Часовой пояс: UTC + 3


Вы не можете начинать темы
Вы не можете отвечать на сообщения
Вы не можете редактировать свои сообщения
Вы не можете удалять свои сообщения
Вы не можете голосовать в опросах
Вы не можете прикреплять файлы к сообщениям
Вы не можете скачивать файлы