Малыш и Карлсон. Новый год на крыше (Галина Анпилогова) [2016 г., новогодняя музыкальная сказка, WEB-DLRip] Иркутская областная филармония


 

[Цитировать]

Малыш и Карлсон. Новый год на крыше Название театра: Иркутская областная филармония.
Год выпуска: 2016.
Жанр: новогодняя музыкальная сказка.
Продолжительность: 00:50:02.
Режиссёр-постановщик: Галина Анпилогова.
О спектакле:
В музыкальной сказке «Малыш и Карлсон. Новый год на крыше» поют, играют и танцуют солисты филармонии. Это не просто музыкальная сказка, а самый настоящий диалог с сидящими в зале юными зрителями, которые сочувствуют героям, дают им советы и веселятся вместе с ними. А сколько чудесных песен вы услышите в этот день! Сколько зажигательных мелодий, в том числе и классических, звучит с филармонической сцены!
Дополнительная информация:
Страна: Россия .
Выпущено: Иркутская областная филармония.
Автор инсценировки и режиссёр-постановщик: Галина Анпилогова.
Хореограф-постановщик: Елена Бусаргина.

Релиз
Рип sharky.

Качество видео:...WEB-DLRip
Формат:.................AVI
Видео:..704x400 (1.76:1), 25 fps, XviD build 47 ~1945 kbps avg, 0.28 bit/pixel
Аудио:..44.100 kHz, MPEG Layer 3, 2 ch, ~128.00 kbps avg

Отчет MI

Общее
Полное имя : Malysh.i.Karlson.Novyj.god.na kryshe_Irkutskaya.oblastnaya.filarmoniya.2016.XviD.WEB-DLRip.fenixclub.avi
Format : AVI
Format/Info : Audio Video Interleave
File size : 745 MiB
Duration : 50mn 1s
Overall bit rate : 2 083 Kbps
Writing application : VirtualDubMod 1.5.10.2 (build 2540/release)
Writing library : VirtualDubMod build 2540/release
Video
ID : 0
Format : MPEG-4 Visual
Format profile : Advanced Simple@L5
Format settings, BVOP : 1
Format settings, QPel : No
Format settings, GMC : No warppoints
Format settings, Matrix : Default (H.263)
Codec ID : XVID
Codec ID/Hint : XviD
Duration : 50mn 1s
Bit rate : 1 945 Kbps
Width : 704 pixels
Height : 400 pixels
Display aspect ratio : 16:9
Frame rate : 25.000 fps
Color space : YUV
Chroma subsampling : 4:2:0
Bit depth : 8 bits
Scan type : Progressive
Compression mode : Lossy
Bits/(Pixel*Frame) : 0.276
Stream size : 696 MiB (93%)
Writing library : XviD 1.2.0.dev47 (UTC 2006-11-01)
Audio
ID : 1
Format : MPEG Audio
Format version : Version 1
Format profile : Layer 3
Codec ID : 55
Codec ID/Hint : MP3
Duration : 50mn 1s
Bit rate mode : Constant
Bit rate : 128 Kbps
Channel(s) : 2 channels
Sampling rate : 44.1 KHz
Compression mode : Lossy
Stream size : 45.8 MiB (6%)
Alignment : Split accross interleaves
Interleave, duration : 40 ms (1.00 video frame)
Interleave, preload duratio : 500 ms
Writing library : LAME3.97
Encoding settings : -m s -V 4 -q 2 -lowpass 17 -b 128

Скриншоты


Альтернативный хост





Показать сообщения:    

Текущее время: 03-Дек 16:47

Часовой пояс: UTC + 3


Вы не можете начинать темы
Вы не можете отвечать на сообщения
Вы не можете редактировать свои сообщения
Вы не можете удалять свои сообщения
Вы не можете голосовать в опросах
Вы не можете прикреплять файлы к сообщениям
Вы не можете скачивать файлы