Иррациональный человек / Irrational Man (Вуди Аллен / Woody Allen) [2015, США, драма, детектив, BDRip 720p] Dub + Sub Rus, Eng + Original Eng


 

[Цитировать]

-Иррациональный человек / Irrational Man-Страна: США
Студия: Gravier Productions
Жанр: драма, детектив
Год выпуска: 2015
Продолжительность: 01:34:50-Перевод: Профессиональный (дублированный)
Cубтитры: английские, русские (х2)
Оригинальная аудиодорожка: английский-Режиссер: Вуди Аллен / Woody Allen
В ролях: Хоакин Феникс, Эмма Стоун, Джейми Блэкли, Паркер Поузи, Джо Степлтон, Нэнси Кэрролл, Эллисон Галлерани, Бригитт Ланди-Пейн, Кэтлин Семер, Бетси Айдем-Описание: Профессор философии Эйб Лукас опустошен: он не видит в своей жизни ни радости, ни смысла.
На лето Эйб приезжает преподавать в небольшой колледж, где у него завязываются отношения с двумя очень разными женщинами. Рита, его новая коллега, воображает, что именно он вызволит ее из несчастливого брака. А Джилл, его лучшая студентка, становится ему ближайшим другом. Но девушку неодолимо притягивают мятущаяся творческая натура Эйба и его загадочное прошлое, и она все больше отдаляется от своего бойфренда, Роя…
Все меняет невольно подслушанный Эйбом и Джилл разговор, после которого Эйб, стряхнув с себя равнодушие и отчаяние, решает действовать… Абсолютно иррационально.-Сэмпл: https://yadi.sk/i/JZPKtyk6pWpaN-Тип релиза: BDRip 720p
Контейнер: MKV
Видео: MPEG-4 AVC Video / 7821 Kbps / 1280x534p / 23.976 fps / High Profile 4.1
Аудио: Dolby Digital Audio Russian 384 kbps 5.1 / 48 kHz / 384 kbps
Аудио 2: Dolby Digital Audio English 5.1 / 48 kHz / 640 kbps
Формат субтитров: softsub (SRT)

Видеоряд от VietHD

MOVIE iNFO
GENRE.........: Drama, Mystery
IMDB RATING...: Ratings: 6.7/10 from 10,605 users
LINK..........: http://www.imdb.com/title/tt3715320/
RELEASE iNFO
RELEASE NAME..: Irrational Man 2015 720p BluRay DTS x264-VietHD
ENCODED DATE..: UTC 2015-12-29 05:11:04
RELEASE SIZE..: 6.31 GiB
RUNTIME.......: 1h 34mn
VIDEO CODEC...: x264, High@L4.1
FRAMERATE.....: 23.976 fps
BITRATE.......: 7 821 Kbps
RESOLUTION....: 1280x534
AUDIO.........: English DTS 5.1@1 510 Kbps
CHAPTERS......: Yes
SUBTITLES.....: English, English SDH, French, Spanish.
SOURCE........: Irrational Man 2015 1080p Blu-ray AVC DTS-HD MA 5.1-BAKED
ENCODER.......: Red
NOTES
Special thanks to all VietHD and EbP's members and my friends ! ^^
x264 iNFO
x264 [info]: frame I:782 Avg QP:14.43 size:149666
x264 [info]: frame P:25742 Avg QP:16.53 size: 75424
x264 [info]: frame B:109892 Avg QP:17.44 size: 33092
x264 [info]: consecutive B-frames: 1.0% 1.3% 3.0% 18.3% 15.5% 38.8% 7.0% 6.0% 2.2% 1.0% 1.2% 4.6%
encoded 136416 frames, 4.84 fps, 8007.64 kb/s, duration 7:49:48.30
Source vs VietHD





MI

General
Unique ID : 218342432598004508106213717115650732878 (0xA4433910704F86DDA48511E321B0734E)
Complete name : R:\Иррациональный человек (2015. Irrational Man) 720p.mkv
Format : Matroska
Format version : Version 2
File size : 5.98 GiB
Duration : 1h 34mn
Overall bit rate : 9 034 Kbps
Movie name : Release for RuTracker
Encoded date : UTC 2016-02-25 21:10:36
Writing application : mkvmerge v4.9.1 ('Ich will') сборка от Jul 11 2011 23:53:15
Writing library : libebml v1.2.1 + libmatroska v1.1.1
Video
ID : 1
Format : AVC
Format/Info : Advanced Video Codec
Format profile : High@L4.1
Format settings, CABAC : Yes
Format settings, ReFrames : 12 frames
Codec ID : V_MPEG4/ISO/AVC
Duration : 1h 34mn
Bit rate : 7 830 Kbps
Width : 1 280 pixels
Height : 534 pixels
Display aspect ratio : 2.40:1
Frame rate mode : Constant
Frame rate : 23.976 fps
Color space : YUV
Chroma subsampling : 4:2:0
Bit depth : 8 bits
Scan type : Progressive
Bits/(Pixel*Frame) : 0.478
Stream size : 5.19 GiB (87%)
Title : Irrational Man 2015 720p BluRay DTS x264-VietHD
Writing library : x264 core 146 r2538kMod 121396c
Encoding settings : cabac=1 / ref=12 / deblock=1:-3:-3 / analyse=0x3:0x133 / me=umh / subme=10 / psy=1 / fade_compensate=0.00 / psy_rd=1.10:0.00 / mixed_ref=1 / me_range=24 / chroma_me=1 / trellis=2 / 8x8dct=1 / cqm=0 / deadzone=21,11 / fast_pskip=0 / chroma_qp_offset=-2 / threads=12 / lookahead_threads=3 / sliced_threads=0 / nr=0 / decimate=0 / interlaced=0 / bluray_compat=0 / constrained_intra=0 / fgo=0 / bframes=11 / b_pyramid=2 / b_adapt=2 / b_bias=0 / direct=3 / weightb=1 / open_gop=0 / weightp=2 / keyint=250 / keyint_min=23 / scenecut=40 / intra_refresh=0 / rc_lookahead=60 / rc=crf / mbtree=0 / crf=15.8000 / qcomp=0.65 / qpmin=0 / qpmax=69 / qpstep=4 / vbv_maxrate=62500 / vbv_bufsize=78125 / crf_max=0.0 / nal_hrd=none / filler=0 / ip_ratio=1.30 / pb_ratio=1.20 / aq=3:0.75
Language : English
Default : Yes
Forced : No
Matrix coefficients : BT.709
Audio #1
ID : 2
Format : AC-3
Format/Info : Audio Coding 3
Mode extension : CM (complete main)
Format settings, Endianness : Big
Codec ID : A_AC3
Duration : 1h 34mn
Bit rate mode : Constant
Bit rate : 384 Kbps
Channel(s) : 6 channels
Channel positions : Front: L C R, Side: L R, LFE
Sampling rate : 48.0 KHz
Bit depth : 16 bits
Compression mode : Lossy
Stream size : 260 MiB (4%)
Title : Dub
Language : Russian
Default : Yes
Forced : No
Audio #2
ID : 3
Format : AC-3
Format/Info : Audio Coding 3
Mode extension : CM (complete main)
Format settings, Endianness : Big
Codec ID : A_AC3
Duration : 1h 34mn
Bit rate mode : Constant
Bit rate : 640 Kbps
Channel(s) : 6 channels
Channel positions : Front: L C R, Side: L R, LFE
Sampling rate : 48.0 KHz
Bit depth : 16 bits
Compression mode : Lossy
Stream size : 434 MiB (7%)
Language : English
Default : No
Forced : No
Text #1
ID : 4
Format : UTF-8
Codec ID : S_TEXT/UTF8
Codec ID/Info : UTF-8 Plain Text
Title : lesnoy.alexander
Language : Russian
Default : No
Forced : No
Text #2
ID : 5
Format : UTF-8
Codec ID : S_TEXT/UTF8
Codec ID/Info : UTF-8 Plain Text
Title : platonych
Language : Russian
Default : No
Forced : No
Text #3
ID : 6
Format : UTF-8
Codec ID : S_TEXT/UTF8
Codec ID/Info : UTF-8 Plain Text
Language : English
Default : No
Forced : No
Text #4
ID : 7
Format : UTF-8
Codec ID : S_TEXT/UTF8
Codec ID/Info : UTF-8 Plain Text
Title : SDH
Language : English
Default : No
Forced : No
Menu
00:00:00.000 : en:Chapter 1
00:04:40.113 : en:Chapter 2
00:09:23.688 : en:Chapter 3
00:13:30.100 : en:Chapter 4
00:17:54.698 : en:Chapter 5
00:23:17.646 : en:Chapter 6
00:30:58.147 : en:Chapter 7
00:38:21.215 : en:Chapter 8
00:45:41.071 : en:Chapter 9
00:54:50.287 : en:Chapter 10
01:00:10.189 : en:Chapter 11
01:04:35.037 : en:Chapter 12
01:09:44.138 : en:Chapter 13
01:13:58.475 : en:Chapter 14
01:20:16.019 : en:Chapter 15
01:26:02.115 : en:Chapter 16

Скриншоты


Цитата:
  • Сохранены оригинальные чаптеры как на Blu-ray.
  • Русская дорога с тунца. На DVD R5 ничуть не лучше.

    DVD

    тунец




Показать сообщения:    

Текущее время: 06-Дек 11:09

Часовой пояс: UTC + 3


Вы не можете начинать темы
Вы не можете отвечать на сообщения
Вы не можете редактировать свои сообщения
Вы не можете удалять свои сообщения
Вы не можете голосовать в опросах
Вы не можете прикреплять файлы к сообщениям
Вы не можете скачивать файлы