(Classical) W.A. Mozart - Clarinet Concerto KV.622, La Clemenza di Tito, KV.621, KV.411/484a, KV.477/479a - Frans Bruggen, Orchestra of the Eighteenth Century - 2004, FLAC (image+.cue) lossless


Статистика раздачи [Обновить пиров]
Размер:  245 MB   |    Зарегистрирован:  10 месяцев 3 дня   |    Скачан:  2 раза

Полного источника не было: 5 месяцев 6 дней

 
   
 
 
 

[Цитировать]

Wolfgang Amadeus Mozart - Clarinet Concerto KV.622, La Clemenza di Tito, KV.621, KV.411/484a, KV.477/479a
Frans Brüggen & Orchestra of the Eighteenth Century.

Жанр: Classical
Страна-производитель диска: Espana
Год издания диска: 2004
Издатель (лейбл): Glossa Music
Номер по каталогу: 84-96390-49-7
ASIN: B000066R8N
Дата записи: 1986-2001
Аудиокодек: FLAC
Тип рипа: image+.cue
Битрейт аудио: lossless
Продолжительность: 00:59:33
Источник: demonoid
Наличие сканов в содержимом раздачи: да
Треклист:
Clarinet Concerto in A major, KV.622
01. I.Allegro [12:39]
02. II.Adagio [06:59]
03. III.Rondo, Allegro [08:51]
La Clemenza di Tito, KV.621 (fragmentos)
04. Obertura [05:07]
05. Aria: Parto, ma tu ben mio [06:55]
06. Aria: Non piu di fiori [07:30]
07. Adagio in B-flat major, KV.411/484a [06:06]
08. Maurerische Trauermusik, KV.477/479a [05:30]
Исполнители:
Orchestra of the Eighteenth Century
Frans Brüggen - дирижер.
Eric Hoeprich - кларнет;
Joyce DiDonato - меццо сопрано.

Лог создания рипа

Exact Audio Copy V1.0 beta 4 from 7. December 2014
EAC extraction logfile from 4. November 2011, 23:24
Wolfgang Amadeus Mozart; Eric Hoeprich, Orchestra of the Eighteenth Century, Frans Brüggen / Clarinet Concerto
Used drive : TSSTcorpCDDVDW SE-208AB Adapter: 1 ID: 1
Read mode : Secure
Utilize accurate stream : Yes
Defeat audio cache : Yes
Make use of C2 pointers : No
Read offset correction : 6
Overread into Lead-In and Lead-Out : No
Fill up missing offset samples with silence : Yes
Delete leading and trailing silent blocks : No
Null samples used in CRC calculations : Yes
Used interface : Native Win32 interface for Win NT & 2000
Used output format : User Defined Encoder
Selected bitrate : 128 kBit/s
Quality : High
Add ID3 tag : No
Command line compressor : C:\Program Files (x86)\Exact Audio Copy\Flac\flac.exe
Additional command line options : -V -8 -T "Date=%year%" -T "Genre=%genre%" %source%
TOC of the extracted CD
Track | Start | Length | Start sector | End sector
---------------------------------------------------------
1 | 0:00.30 | 12:38.30 | 30 | 56909
2 | 12:38.60 | 6:58.10 | 56910 | 88269
3 | 19:36.70 | 8:50.41 | 88270 | 128060
4 | 28:27.36 | 5:06.49 | 128061 | 151059
5 | 33:34.10 | 6:54.59 | 151060 | 182168
6 | 40:28.69 | 7:29.26 | 182169 | 215869
7 | 47:58.20 | 6:05.59 | 215870 | 243303
8 | 54:04.04 | 5:29.56 | 243304 | 268034
Range status and errors
Selected range
Filename D:\musor\Mozart-The last Concert (Bruggen)_EAC\W.A. Mozart - Clarinet Concerto.wav
Peak level 99.9 %
Extraction speed 4.7 X
Range quality 100.0 %
Test CRC 54444A90
Copy CRC 54444A90
Copy OK
No errors occurred
AccurateRip summary
Track 1 cannot be verified as accurate (confidence 1) [139DC8C0], AccurateRip returned [2F86E1B4] (AR v2)
Track 2 cannot be verified as accurate (confidence 1) [D308BA97], AccurateRip returned [9D993E2C] (AR v2)
Track 3 cannot be verified as accurate (confidence 1) [2FE668F8], AccurateRip returned [5B4A599F] (AR v2)
Track 4 cannot be verified as accurate (confidence 1) [EF9DFC63], AccurateRip returned [C10CCC22] (AR v2)
Track 5 cannot be verified as accurate (confidence 1) [4D05510C], AccurateRip returned [CF90E3A9] (AR v2)
Track 6 cannot be verified as accurate (confidence 1) [894596C3], AccurateRip returned [46BCA146] (AR v2)
Track 7 cannot be verified as accurate (confidence 1) [F55189C2], AccurateRip returned [5EA71758] (AR v2)
Track 8 cannot be verified as accurate (confidence 1) [CC06C5CD], AccurateRip returned [7B713195] (AR v2)
No tracks could be verified as accurate
You may have a different pressing from the one(s) in the database
End of status report
---- CUETools DB Plugin V2.1.4
[CTDB TOCID: og7Uwad29KrSyfOSv9.649FJwW0-] found
Submit result: already submitted
Track | CTDB Status
1 | (4/4) Accurately ripped
2 | (4/4) Accurately ripped
3 | (3/4) Accurately ripped
4 | (4/4) Accurately ripped
5 | (4/4) Accurately ripped
6 | (4/4) Accurately ripped
7 | (4/4) Accurately ripped
8 | (4/4) Accurately ripped
==== Log checksum 1862BBFAB46A1F402C019E6F565EF3EBFDB60941AA9A86E81E7FA7BEF0F9530E ====

Содержание индексной карты (.CUE)

REM EDIT CUESheet Editor for CA RipTools 21.02.2016 23:38:22
REM DATE 2013
REM COMMENT "ExactAudioCopy v1.0b4"
PERFORMER "Wolfgang Amadeus Mozart; Eric Hoeprich, Orchestra of the Eighteenth Century,..."
TITLE "Clarinet Concerto"
FILE "W.A.Mozart-Clarinet Concerto.flac" WAVE
TRACK 01 AUDIO
PERFORMER "Frans Bruggen"
TITLE "Clarinet Concerto, KV.622 I.Allegro"
INDEX 00 00:00:00
INDEX 01 00:00:30
TRACK 02 AUDIO
PERFORMER "Frans Bruggen"
TITLE "Clarinet Concerto, KV.622 II.Adagio"
INDEX 00 12:36:59
INDEX 01 12:38:60
TRACK 03 AUDIO
PERFORMER "Frans Bruggen"
TITLE "Clarinet Concerto, KV.622 III.Rondo, Allegro"
INDEX 00 19:36:61
INDEX 01 19:36:70
TRACK 04 AUDIO
PERFORMER "Frans Bruggen"
TITLE "La Clemenza di Tito, KV.621 (fragmentos) Obertura"
INDEX 00 28:23:66
INDEX 01 28:27:36
TRACK 05 AUDIO
PERFORMER "Frans Bruggen"
TITLE "La Clemenza di Tito, KV.621 (fragmentos) Aria: Parto, ma tu ben mio"
INDEX 00 33:30:40
INDEX 01 33:34:10
TRACK 06 AUDIO
PERFORMER "Frans Bruggen"
TITLE "La Clemenza di Tito, KV.621 (fragmentos) Aria: Non piu di fiori"
INDEX 00 40:26:38
INDEX 01 40:28:69
TRACK 07 AUDIO
PERFORMER "Frans Bruggen"
TITLE "Adagio in B-flat major, KV.411/484a"
INDEX 00 47:54:60
INDEX 01 47:58:20
TRACK 08 AUDIO
PERFORMER "Frans Bruggen"
TITLE "Maurerische Trauermusik, KV.477/479a"
INDEX 00 53:59:60
INDEX 01 54:04:04

Лог проверки качества

-----------------------
DON'T MODIFY THIS FILE
-----------------------
PERFORMER: auCDtect Task Manager, ver. 1.6.0 RC1 build 1.6.0.1
Copyright (c) 2008-2010 y-soft. All rights reserved
http://y-soft.org
ANALYZER: auCDtect: CD records authenticity detector, version 0.8.2
Copyright (c) 2004 Oleg Berngardt. All rights reserved.
Copyright (c) 2004 Alexander Djourik. All rights reserved.
FILE: W.A.Mozart-Clarinet Concerto.flac
Size: 250402070 Hash: 468C3D6708ABB7AA61CC9D312B808F09 Accuracy: -m0
Conclusion: CDDA 99%
Signature: 0A22AD6A96C103361E9350D6B9B7F8C648C74FD6

Скриншот спектра частот

Доп. информация:Frans Brüggen

Франс Брюгген (нидерл. Frans Brüggen; 30 октября 1934, Амстердам — 13 августа 2014) — нидерландский блокфлейтист, дирижёр, музыковед.
Биография:
Учился в Амстердамском музыкальном лицее, затем — в Амстердамском университете. С 1955 — профессор Королевской консерватории в Гааге. В 1981 г. создал Оркестр XVIII века (60 музыкантов из 22 стран мира), играющий на инструментах эпохи. Выступает как солист, играет в ансамблях с La Petite Bande Сигизвальда Кёйкена, Густавом Леонхардтом и другими аутентистами. В 1991—1994 гг. руководил Камерным оркестром Нидерландского радио. С 1998 г. — приглашённый дирижёр Парижского оркестра. Дирижировал многими оркестрами Европы, включая оркестр Консертгебау. Преподавал в Гарварде и Беркли.
Джойс ДиДонато (англ. Joyce DiDonato, родилась 13 февраля 1969 года) — известная американская оперная певица, лирико-колоратурное меццо-сопрано. Считается одной из самых востребованных оперных исполнительниц. Лауреат премии Грэмми за лучший классический сольный вокал (2012).
Биография:
Джойс ДиДонато (Джойс Флаэрти) родилась в городе Прерия Вилидж, штат Канзас, в 1969 году, была шестым ребенком в ирландско-американской семье, в которой было семеро детей. Отец джойс руководил церковным хором. Джойс пела в хоре и выступала в мюзиклах в старших классах, мечтала о карьере бродвейской звезды или поп-певицы. Обучалась на вокальном отделении Уичитского университета. Сначала её больше привлекали преподавание вокала в старших классах школы и музыкальный театр, а интерес к опере возник только на третьем курсе, когда она прошла отбор для участия в студенческом спектакле «Летучая мышь». Продолжила обучение в Академии вокального искусства в Филадельфии. Летом 1995 года на период фестиваля была принята в стажерскую группу Оперы Санта-Фе, где исполнила несколько небольших ролей и подготовила большие партии с целью возможной замены исполнителя в таких операх, как «Свадьба Фигаро» Моцарта, «Саломея» Р. Штрауса, «Марица» И.Кальмана, «Современные художники» Дэвида Лэнга. Приняла участие в молодежной программе Гранд Опера в Хьюстоне и в оперной программе Мерола в театре Сан-Франциско.
[teatrix.ru].t23111.torrent 
Торрент: Зарегистрирован [ 2016-03-21 00:33 ] · 7A8DDBE880623E81A016173C3551AAFE20E85BE6

Скачать .torrent

Скачать

22 KB

Статус: проверено
Скачан: 2 раз
Размер: 245 MB
terms.php



Быстрый ответ

Имя:

      
Для отправки сообщений необходимо включить JavaScript
Показать сообщения:    

Текущее время: 25-Янв 00:21

Часовой пояс: UTC + 3


Вы можете начинать темы
Вы можете отвечать на сообщения
Вы не можете редактировать свои сообщения
Вы не можете удалять свои сообщения
Вы не можете голосовать в опросах
Вы не можете прикреплять файлы к сообщениям
Вы можете скачивать файлы