Олег Антонов - человек неба (Владимир Батюнин) [2016, авиация, биография, документальный, техника, SATRip]


Статистика раздачи [Обновить пиров]
Размер:  566 MB   |    Зарегистрирован:  8 месяцев 15 дней   |    Скачан:  0 раз

Полного источника не было: Никогда

 
   
 
 
 

[Цитировать]

Олег Антонов - человек неба
Дата/Год выпуска: 2016
Страна: Украина
Жанр: авиация, биография, документальный, техника
Продолжительность: 00:45:35
Перевод: Не требуется
Русские субтитры: нет
Оригинальная аудиодорожка: русский
Режиссер: Владимир Батюнин
Телеканал: IнтерОписание: Картина посвящена 110-й годовщине со дня рождения выдающегося авиаконструктора Олега Антонова.
Он мечтал летать с самого детства. В своем фильме мы опишем его путь к мечте: расскажем о его первых крылатых машинах (планёры, по словам самого Антонова, навсегда остались его самыми любимыми самолетами), расскажем о его разработках, которые били рекорды, оставляли позади разработки зарубежных авиаконструкторов, заставляли авиапром всего мира двигаться вперед.
В чем же гений Олега Константиновича? Он занимался делом, которое в его время было нужно стране и миру. Но занимался им так, как, возможно, не смог бы никто другой.
Каким Антонов был в жизни? Что рассказывают о нем друзья и родные? Каким он был на работе и как проводил свободное время? Он рисовал картины, писал стихи и рассказы, творчески походил даже к организации труда – его рабочий стол в кабинете коллеги сравнивают с компьютером. Но главным его творчеством всегда были самолеты. В них он реализовал свою главную мечту - летать.

Альтернативное описание

В это воскресенье на «Интере» состоится премьера документального фильма «Олег Антонов – человек неба». Его сняли к 110-летию со дня рождения легендарного авиаконструктора, имя которого знает весь мир. Картина собственного производства канала расскажет о первых крылатых машинах Антонова и его разработках, заставлявших авиапром всего мира двигаться вперед. А также откроет зрителю другие таланты Олега Константиновича, рисовавшего картины, писавшего стихи и рассказы.
«Именно с этим гениальным человеком связана наша победа в большом, глобальном воздушном соревновании сверхдержав в ХХ веке, - говорит главный редактор телеканала «Интер» Антон Никитин. – Благодаря Олегу Антонову у нас есть выдающиеся результаты, а рекорды самолетов «Руслан» и «Мрія» до сих пор не побиты в мировой авиации. Всегда есть люди, которые становятся маяками своего времени, «индикаторами эпохи». Они притягивают к себе других и позволяют свершиться чему-то новому. Именно таким был Олег Константинович Антонов. Очень символично, что именно этот многогранный человек добился таких выдающихся результатов в небе. Сегодня авиация и наш научный потенциал – то немногое, чем мы, без сомнения, можем гордиться».
Создатели фильма (автор сценария – Евгений Оноприенко, режиссер – Владимир Батюнин) обещают ответить на множество вопросов: в чем же гений Олега Константиновича и каким он был в жизни? Что рассказывают о нем друзья и родные? Как он проводил свободное время и каким был на работе? Среди спикеров картины – генеральный конструктор ГП «Антонов» Дмитрий Кива, долгое время бывший правой рукой Олега Константиновича; заместитель генерального конструктора ГП «Антонов» Олег Богданов – сотрудник и друг Антонова; летчик-испытатель Юрий Курлин; заведующая музеем ГП «Антонов» Любовь Ивасенко. В фильме «Олег Антонов – человек неба» использована оригинальная хроника, архивные фото и видео с выдающимся авиаконструктором.
Доп. информация: Большая часть фильма состоит из кадров кинохроники, имеющих соотношение сторон 4:3. Съемки, сделанные для фильма (интервью и кадры из музея ГП "Антонов") - с соотношением сторон 16:9. Рип сделан с соотношением сторон 4:3, поскольку в противном случае будут потеряны верхние и нижние полосы кинохроники, а также будут "отрезаны" размещенные в левом верхнем и левом нижнем углах титры.Сэмпл: https://www.sendspace.com/file/g8ggl5
качество: SATRip
формат: AVI
Видео: Xvid 704x528 (4:3) 25fps ~1536kbps
Аудио: MP3 48000Hz stereo 192kbps

MediaInfo

General
Complete name : J:\Мои раздачи\Олег Антонов - человек неба.avi
Format : AVI
Format/Info : Audio Video Interleave
File size : 566 MiB
Duration : 45mn 34s
Overall bit rate : 1 736 Kbps
Video
ID : 0
Format : MPEG-4 Visual
Format profile : Advanced Simple@L5
Format settings, BVOP : Yes
Format settings, QPel : No
Format settings, GMC : No warppoints
Format settings, Matrix : Default (H.263)
Codec ID : XVID
Codec ID/Hint : XviD
Duration : 45mn 34s
Bit rate : 1 534 Kbps
Width : 704 pixels
Height : 528 pixels
Display aspect ratio : 4:3
Frame rate : 25.000 fps
Color space : YUV
Chroma subsampling : 4:2:0
Bit depth : 8 bits
Scan type : Progressive
Compression mode : Lossy
Bits/(Pixel*Frame) : 0.165
Stream size : 500 MiB (88%)
Writing library : XviD 64
Audio
ID : 1
Format : MPEG Audio
Format version : Version 1
Format profile : Layer 3
Mode : Joint stereo
Mode extension : MS Stereo
Codec ID : 55
Codec ID/Hint : MP3
Duration : 45mn 34s
Bit rate mode : Constant
Bit rate : 192 Kbps
Channel(s) : 2 channels
Sampling rate : 48.0 KHz
Compression mode : Lossy
Stream size : 62.6 MiB (11%)
Alignment : Split accross interleaves
Interleave, duration : 40 ms (1.00 video frame)
Interleave, preload duration : 500 ms

Скриншоты

[teatrix.ru].t23112.torrent 
Торрент: Зарегистрирован [ 2016-03-21 00:33 ] · FFF796BBA82CA6F1A3825243DC82CDD62C2F8ECF

Скачать .torrent

Скачать

12 KB

Статус: проверено
Скачан: 0 раз
Размер: 566 MB
terms.php



Быстрый ответ

Имя:

      
Для отправки сообщений необходимо включить JavaScript
Показать сообщения:    

Текущее время: 05-Дек 05:31

Часовой пояс: UTC + 3


Вы можете начинать темы
Вы можете отвечать на сообщения
Вы не можете редактировать свои сообщения
Вы не можете удалять свои сообщения
Вы не можете голосовать в опросах
Вы не можете прикреплять файлы к сообщениям
Вы можете скачивать файлы