(vocal, opera)Николай Гедда - Nicolai Gedda In Opera - (Georges Bizet,Charles Gounod,Jules Massenet,Francois Auber,Модест Мусоргский,Михаил Глинка,Петр Чайковский,Friedrich von Flotow,Gaetano Donizetti,Giuseppe Verdi) 2008 [2CD], APE (image+.cue)


 

[Цитировать]

Nicolai Gedda In Opera - Prima Voce
Жанр: vocal, opera
Страна-производитель диска: UK
Год издания диска: 2008
Издатель (лейбл): Nimbus Records
Номер по каталогу: NI 7943/4
Дата записи: 1952-1957
Аудиокодек: APE
Тип рипа: image+.cue
Битрейт аудио: lossless
Продолжительность: 01:15:18 + 01:10:13
Источник: собственный рип
Наличие сканов в содержимом раздачи: да
Треклист:

Disk One

Georges Bizet (1838 – 1875)
Les Pêcheurs de Perles
1. Je crois entendre encore
Charles Gounod (1818 – 1893)
Mireille
2. Le ciel rayonne … est-elle jeune et belle?
3. Mon Coeur est plein … ah! La voici! C’est elle!
Roméo et Juliette
4. L’amour! L’amour! … Ah! Lève-toi, soleil!
Faust
5. Salut! Demeure chaste et pure
6. Il était temps … Il se fait tard
7. Va-t-en! … Mon Coeur est pénétré … Alerte!
Jules Massenet (1842 – 1912)
Manon
8. Instant charmant … En ferment les yeux
Werther
9. Pourquoi me réveiller
François Auber (1782 – 1871)
La muette de Portici
10. Du pauvre seul ami fidèle

Disk Two

Modest Musorgsky (1839 – 1881)
Boris Godunov
1. Polish scene, duet Dmitri and Marina
Mikhail Glinka (1804 – 1857)
Ruslan I Lyudmila
2. Excerpt from Introduction Act I
Pyotr Tchaikovsky (1840 – 1893)
Eugene Onegin
3. Faint echo of my youth
Friedrich von Flotow (1812 – 1883)
Martha
4. Ach, so fromm
Gaetano Donizetti (1797 – 1848)
L'Elisir D'Amore
5. Una furtiva lagrima
La favorita
6. Favorita del Re! … Spirto gentil
Giuseppe Verdi (1813 – 1901)
Rigoletto
7. Ella mi fu rapita! … Parmi veder le lagrime
Amilcare Ponchielli (1834 – 1886)
La Gioconda
8. Cielo e mar!
Francesco Cilea (1866 – 1950)
L’Arlesiana
9. E la solita storia
Franz Lehár (1870 – 1948)
Die lustige Witwe
10. Mein Freund, Vernuft … Wie eine Rosenknospe
Das Land des Lächelns
11. Immer nur lächeln
12. Dein ist mein ganzes Herz
-Исполнители:
Nicolai Gedda (tenor)
Janette Vivalda (soprano) (CD 1 trs. 2, 3);
Madeleine Ignal (mezzo), André Vessieres (baritone) (CD 1 tr 3);
Victoria de los Angeles (soprano), Boris Christoff (bass) (CD 1 trs. 6, 7);
Eugenia Zareska (mezzo) (CD 2 tr. 1);
Janine Micheau (soprano), Rita Gorr (mezzo), Pierre Fromenty (baritone), Xavier Depraz (bass) (CD 2 tr 2);
Emmy Loose (soprano) (CD 2 tr. 10);
Philharmonia Orchestra/Alceo Galliera (CD 1 tr. 1, 4, 8-10, CD 2 tr. 3-9), Otto Ackermann (CD 2 tr. 10-12);
Orchestre de la Societé des Concerts du Conservatoire/André Cluytens (CD 1 tr. 2, 3);
Orchestre du Thêatre National de l’Opera/André Cluytens (CD 1 tr. 5-7), Louis Fourestier (CD 2 tr. 2);
Orchestre National de la Radiodiffusion Française/Issay Dobrowen (CD 2 tr. 1)-

ЛогиCD1Лог создания рипа

Exact Audio Copy V1.0 beta 6 from 9. April 2015
EAC extraction logfile from 25. February 2016, 18:48
Nicolai Gedda / Nicolai Gedda In Opera [CD1]
Used drive : Optiarc DVD RW AD-7283S Adapter: 1 ID: 0
Read mode : Secure
Utilize accurate stream : Yes
Defeat audio cache : Yes
Make use of C2 pointers : No
Read offset correction : 48
Overread into Lead-In and Lead-Out : No
Fill up missing offset samples with silence : Yes
Delete leading and trailing silent blocks : No
Null samples used in CRC calculations : Yes
Used interface : Native Win32 interface for Win NT & 2000
Used output format : Monkey's Audio Lossless Encoder
Selected bitrate : Extra High Lossless Compression
Quality : High
Add ID3 tag : Yes
Command line compressor : C:\Program Files (x86)\Monkey's Audio\MAC.exe
TOC of the extracted CD
Track | Start | Length | Start sector | End sector
---------------------------------------------------------
1 | 0:00.00 | 3:35.07 | 0 | 16131
2 | 3:35.07 | 8:17.26 | 16132 | 53432
3 | 11:52.33 | 13:33.07 | 53433 | 114414
4 | 25:25.40 | 4:40.64 | 114415 | 135478
5 | 30:06.29 | 5:39.47 | 135479 | 160950
6 | 35:46.01 | 15:08.66 | 160951 | 229116
7 | 50:54.67 | 13:34.01 | 229117 | 290167
8 | 64:28.68 | 3:20.43 | 290168 | 305210
9 | 67:49.36 | 2:54.16 | 305211 | 318276
10 | 70:43.52 | 4:34.54 | 318277 | 338880
Range status and errors
Selected range
Filename D:\WORK\Nicolai Gedda In Opera - {NIMBUS 2008}\CD1\Nicolai Gedda - Nicolai Gedda In Opera [CD1].wav
Peak level 81.4 %
Extraction speed 4.5 X
Range quality 100.0 %
Copy CRC 5E78E981
Copy OK
No errors occurred
AccurateRip summary
Track 1 cannot be verified as accurate (confidence 2) [91890338], AccurateRip returned [1F8AFB4A] (AR v2)
Track 2 cannot be verified as accurate (confidence 2) [72356117], AccurateRip returned [8D992258] (AR v2)
Track 3 cannot be verified as accurate (confidence 2) [E4A3C5D8], AccurateRip returned [509B1626] (AR v2)
Track 4 cannot be verified as accurate (confidence 2) [86E6D877], AccurateRip returned [C3BF2D46] (AR v2)
Track 5 cannot be verified as accurate (confidence 2) [174003E2], AccurateRip returned [9CD6E1AA] (AR v2)
Track 6 cannot be verified as accurate (confidence 2) [DC8BF054], AccurateRip returned [DA4C30C3] (AR v2)
Track 7 cannot be verified as accurate (confidence 2) [E8B42A3F], AccurateRip returned [887B53B2] (AR v2)
Track 8 cannot be verified as accurate (confidence 2) [92E23986], AccurateRip returned [69210A6C] (AR v2)
Track 9 cannot be verified as accurate (confidence 2) [55724BD3], AccurateRip returned [39E089E0] (AR v2)
Track 10 cannot be verified as accurate (confidence 2) [63A608F3], AccurateRip returned [2F61AC27] (AR v2)
No tracks could be verified as accurate
You may have a different pressing from the one(s) in the database
End of status report
---- CUETools DB Plugin V2.1.6
[CTDB TOCID: qb5n01k.r9Xw.GkU6YkQqmlajUo-] disk not present in database
Submit result: qb5n01k.r9Xw.GkU6YkQqmlajUo- has been uploaded

Лог проверки качества

AUDIOCHECKER v2.0 beta (build 457) - by Dester - opdester@freemail.hu
~~~~~~~~~~~~~~~~~~~~~~~~~~~~~~~~~~
-=== DO NOT EDIT THIS FILE! ===-
Path: ...\CD1
1 -=- Nicolai Gedda - Nicolai Gedda In Opera [CD1].ape -=- CDDA (100%)
146640228

CD2Лог создания рипа

Exact Audio Copy V1.0 beta 6 from 9. April 2015
EAC extraction logfile from 25. February 2016, 19:16
Nicolai Gedda / Nicolai Gedda In Opera [CD2]
Used drive : Optiarc DVD RW AD-7283S Adapter: 1 ID: 0
Read mode : Secure
Utilize accurate stream : Yes
Defeat audio cache : Yes
Make use of C2 pointers : No
Read offset correction : 48
Overread into Lead-In and Lead-Out : No
Fill up missing offset samples with silence : Yes
Delete leading and trailing silent blocks : No
Null samples used in CRC calculations : Yes
Used interface : Native Win32 interface for Win NT & 2000
Used output format : Monkey's Audio Lossless Encoder
Selected bitrate : Extra High Lossless Compression
Quality : High
Add ID3 tag : Yes
Command line compressor : C:\Program Files (x86)\Monkey's Audio\MAC.exe
TOC of the extracted CD
Track | Start | Length | Start sector | End sector
---------------------------------------------------------
1 | 0:00.00 | 17:52.51 | 0 | 80450
2 | 17:52.51 | 4:39.09 | 80451 | 101384
3 | 22:31.60 | 6:21.09 | 101385 | 129968
4 | 28:52.69 | 3:25.43 | 129969 | 145386
5 | 32:18.37 | 4:02.58 | 145387 | 163594
6 | 36:21.20 | 5:21.54 | 163595 | 187723
7 | 41:42.74 | 5:02.56 | 187724 | 210429
8 | 46:45.55 | 4:40.11 | 210430 | 231440
9 | 51:25.66 | 4:23.38 | 231441 | 251203
10 | 55:49.29 | 6:17.26 | 251204 | 279504
11 | 62:06.55 | 4:30.57 | 279505 | 299811
12 | 66:37.37 | 3:36.07 | 299812 | 316018
Range status and errors
Selected range
Filename D:\WORK\Nicolai Gedda In Opera - {NIMBUS 2008}\CD2\Nicolai Gedda - Nicolai Gedda In Opera [CD2].wav
Peak level 88.8 %
Extraction speed 4.5 X
Range quality 100.0 %
Copy CRC 023B0EA5
Copy OK
No errors occurred
AccurateRip summary
Track 1 cannot be verified as accurate (confidence 2) [13D5B3CE], AccurateRip returned [34E7CCD7] (AR v2)
Track 2 cannot be verified as accurate (confidence 2) [B3575061], AccurateRip returned [5B5EA2D6] (AR v2)
Track 3 cannot be verified as accurate (confidence 2) [E3992E38], AccurateRip returned [83A4EE31] (AR v2)
Track 4 cannot be verified as accurate (confidence 2) [C5ED1D29], AccurateRip returned [B4B87056] (AR v2)
Track 5 cannot be verified as accurate (confidence 2) [8B16B39B], AccurateRip returned [CAF3DA55] (AR v2)
Track 6 cannot be verified as accurate (confidence 2) [DE392C5E], AccurateRip returned [EABE05A1] (AR v2)
Track 7 cannot be verified as accurate (confidence 2) [5CBBDD51], AccurateRip returned [BB037F09] (AR v2)
Track 8 cannot be verified as accurate (confidence 2) [2482FEB6], AccurateRip returned [B5D0774E] (AR v2)
Track 9 cannot be verified as accurate (confidence 2) [39C4DC18], AccurateRip returned [7F85696D] (AR v2)
Track 10 cannot be verified as accurate (confidence 2) [1A714CCF], AccurateRip returned [00F6A638] (AR v2)
Track 11 cannot be verified as accurate (confidence 2) [429DB31B], AccurateRip returned [D8909D65] (AR v2)
Track 12 cannot be verified as accurate (confidence 2) [C49A8EAF], AccurateRip returned [F19198AA] (AR v2)
No tracks could be verified as accurate
You may have a different pressing from the one(s) in the database
End of status report
---- CUETools DB Plugin V2.1.6
[CTDB TOCID: .1OnDSKtffeywJ42PtzOI1aaTEg-] disk not present in database
Submit result: .1OnDSKtffeywJ42PtzOI1aaTEg- has been uploaded

Лог проверки качества

AUDIOCHECKER v2.0 beta (build 457) - by Dester - opdester@freemail.hu
~~~~~~~~~~~~~~~~~~~~~~~~~~~~~~~~~~
-=== DO NOT EDIT THIS FILE! ===-
Path: ...\CD2
1 -=- Nicolai Gedda - Nicolai Gedda In Opera [CD2].ape -=- CDDA (99%)
109837892

Скриншот спектра частот

Доп. информация: rec. CD 1: tr. 1, 4, 8-10 April 1953, tr. 2-3 July 1954;
CD 2: tr. 1 July 1952, tr. 2 June 1957, tr. 3-9 April 1953, tr. 10-12 November 1952
Digital recording from original LP disks



Показать сообщения:    

Текущее время: 04-Дек 13:07

Часовой пояс: UTC + 3


Вы не можете начинать темы
Вы не можете отвечать на сообщения
Вы не можете редактировать свои сообщения
Вы не можете удалять свои сообщения
Вы не можете голосовать в опросах
Вы не можете прикреплять файлы к сообщениям
Вы не можете скачивать файлы