Verdi - I due Foscari / Верди - Двое Фоскари (Live from La Scala 2016) [Opera, HDTV] (Placido Domingo, Francesco Meli, Anna Pirozzi, Andrea Concetti, Edoardo Milletti, Chiara Isotton, Alvis Hermanis)


 

[Цитировать]

Verdi - I due Foscari / Верди - Двое Фоскари (Live from La Scala 2016)
Год выпуска: 25 Февр. 2016
Страна-производитель: Italy
Жанр: Opera
Продолжительность: 2:09:18
Режиссер: Alvis Hermanis-Исполнители:
* Plácido Domingo (Francesco Foscari)
* Francesco Meli (Jacopo Foscari)
* Anna Pirozzi (Lucrezia Contarini)
* Andrea Concetti (Jacopo Loredano)
* Edoardo Milletti (Barbarigo)
* Chiara Isotton (Pisana)-Описание: From the Teatro alla Scala di Milano: "I due Foscari" by Giuseppe Verdi (1813-1901). Based on a drama by Lord Byron whose work inspired many opera composers in the 19th Century: Jacopo, son of the Doge Francesco Foscari, is wrongly accused of murder by enemies. The state intrigues lead to Jacopo's exile and finally to the death of the Doge and his son. Verdi described the interpersonal conflicts with an enchantingly beautiful and impressive music.

German Description

Aus dem Teatro alla Scala di Milano: "I due Foscari" von Giuseppe Verdi (1813-1901). Literarische Vorlage der Oper ist ein Drama von Lord Byron, dessen Werke im 19. Jahrhundert viele Musiker inspirierten: Jacopo, Sohn des Dogen Francesco Foscari, wird von Feinden zu Unrecht des Mordes bezichtigt; die Staatsintrigen führen zu Jacopos Verbannung und schließlich zum Tode des Dogen und seines Sohnes. Verdi brachte die zwischenmenschlichen Konflikte mit einer bezaubernd schönen, eindrucksvollen Musik auf die Bühne.
http://www.teatroallascala.org/en/season/2015-2016/opera/i-due-foscari.html
Доп. информация:
Conductor: Michele Mariotti
Stage Director: Alvis Hermanis
Stage Design: Alvis Hermanis
Costumes: Kristīne Jurjāne
Choreograph: Алла Сигалова / Alla Sigalova RU
Orchestra: Orchester des Teatro alla Scala di Milano
Chorus: Chor des Teatro alla Scala di Milano-Качество видео: HDTV
Контейнер: MKV
Видео кодек: H.264
Аудио кодек: AC3
Видео поток: Cod.: V_MPEG4/ISO/AVC, 1920x1080i, 10.4 Mbps, 25 fps
Аудио поток: AC3, Chann. 2:, SR: 48 KHz, BR: 384 Kbps

Медиа_Инфо

General
Complete name :Verdi_I due Foscari_Live from La Scala_2016.mkv
Format : Matroska
Format version : Version 4 / Version 2
File size : 9.92 GiB
Duration : 2h 9mn
Overall bit rate : 11.0 Mbps
Writing application : mkvmerge v6.7.0 ('Back to the Ground') 64bit built on Jan 9 2014 18:03:17
Writing library : libebml v1.3.0 + libmatroska v1.4.1
Video
ID : 1
Format : AVC
Format/Info : Advanced Video Codec
Format profile : High@L4.0
Format settings, CABAC : Yes
Format settings, ReFrames : 3 frames
Format settings, GOP : M=4, N=32
Codec ID : V_MPEG4/ISO/AVC
Duration : 2h 9mn
Bit rate : 10.4 Mbps
Width : 1 920 pixels
Height : 1 080 pixels
Display aspect ratio : 16:9
Frame rate mode : Constant
Frame rate : 25.000 fps
Standard : Component
Color space : YUV
Chroma subsampling : 4:2:0
Bit depth : 8 bits
Scan type : Interlaced
Scan order : Top Field First
Bits/(Pixel*Frame) : 0.200
Stream size : 9.38 GiB (95%)
Default : Yes
Forced : No
Color primaries : BT.709
Transfer characteristics : BT.709
Matrix coefficients : BT.709
Audio
ID : 2
Format : AC-3
Format/Info : Audio Coding 3
Mode extension : CM (complete main)
Format settings, Endianness : Big
Codec ID : A_AC3
Duration : 2h 9mn
Bit rate mode : Constant
Bit rate : 384 Kbps
Channel(s) : 2 channels
Channel positions : Front: L R
Sampling rate : 48.0 KHz
Bit depth : 16 bits
Compression mode : Lossy
Delay relative to video : 98ms
Stream size : 355 MiB (3%)
Language : German
Default : Yes
Forced : No



Показать сообщения:    

Текущее время: 04-Дек 00:50

Часовой пояс: UTC + 3


Вы не можете начинать темы
Вы не можете отвечать на сообщения
Вы не можете редактировать свои сообщения
Вы не можете удалять свои сообщения
Вы не можете голосовать в опросах
Вы не можете прикреплять файлы к сообщениям
Вы не можете скачивать файлы