Концерт симфонической музыки и поэзии "Музыка природы, поэзии и любви" из ежегодного цикла концертов "Летние Вечера". Камерный оркестр "Volga Philharmonic" Самарской гос. филармонии. [27.06.2015, Classic, HD 1080i]


 

[Цитировать]

Камерный оркестр «Volga Philharmonic» Самарской государственной филармонии
Дирижер - Георгий Клементьев
Концерт симфонической музыки и поэзии "Музыка поэзии, природы и любви" из ежегодного цикла концертов "Летние Вечера".
Страна: Россия, Самара
Дата: 27.06.2015
Жанр: Вечер симфонической музыки и поэзии
Продолжительность: 1:02:59
Исполнители: Камерный оркестр «Volga Philharmonic» Самарской государственной филармонии под управлением Георгия Клементьева.
Читает стихи и ведёт концерт Ирина Цыганова.
Источник: собственная запись
Видео: 1080i50 (1440x1080), 4500kbps, MKV, H.264
Аудио: AC3, 48000Hz, 6ch, 448kbps
В программе концерта:
1. Зинаида Гиппиус - стихотворение «Долго в полдень вчера я сидел у пруда…»
2. Зденек Фибих - симфоническая поэма, Op. 41, "Поэма"
3. Николай Гумилёв - стихотворение "Шестое чувство"
4. Иоганн Штраус - вальс "Вино, женщины и песни"
5. Игорь Северянин - стихотворение КЭНЗЕЛЬ IX (УЖЕ В ЖАСМИНАХ ТРЕЛЯТ СОЛОВЬИ)
6. Григораш Динику - соч. для скрипки "Мартовский хоровод"
7. Адам Мицкевич - стихотворение «Утро и вечер»
8. Фрэнсис Лей - музыка к к/ф "История любви"
9. Николай Гумилёв - стихотворение "Из букета целого сиреней…"
10. Фриц Крейслер - вальс "Муки любви" - солирует Ирина Смолякова
11. Ван Вэй - стихотворение "Провожаю весну"
12. Астор Пьяццолла - "Весна" из цикла "Времена года в Буэнос-Айресе"
13. Иван Тургенев - стихотворение "Когда в весенний день, о ангел мой послушный..."
14. Карлос Гардель - танго из к/ф"Запах женщины"
15. Николай Заболоцкий - стихотворение "Чертополох"
16. Якоб Гаде - танго "Ревность"
17. Константин Бальмонт - стихотворение "В моем саду мерцают розы белые"
18. Астор Пьяццолла - "Лето" из цикла "Времена года в Буэнос-Айресе"

Описание

Камерный оркестр Самарской государственной филармонии «Volga Philharmonic» был образован в 2011 году по инициативе Дмитрия КОГАНА. В составе оркестра – профессиональные, опытные музыканты, среди которых заслуженные артисты России и Башкортостана.
В Самаре давно назрела необходимость создания мобильного Камерного оркестра, аналогичного тем, которыми располагают ведущие филармонии мира. Чтобы дать сообществу музыкантов возможность творчески развиваться и выйти на международный уровень, руководство филармонии и министерство культуры Самарской области закрепили за Камерным оркестром «Volga Philharmonic» статус самостоятельного коллектива, ведущего независимую концертно-гастрольную деятельность.
Первые гастроли коллектива состоялись в Москве – оркестр с большим успехом выступил в большом сольном концерте Дмитрия КОГАНА в Колонном зале Дома Союзов. Затем последовал крупный региональный проект «Музыкальное посвящение 160-летию Самарской губернии», в рамках которого оркестр дал концерты в четырех малых городах и районах Самарской области – в Отрадном, Нефтегорске, Похвистнево, Волжском районе, встретив искренний, горячий прием слушателей. В сентябре состоялись масштабные гастроли Камерного оркестра по городам Урала, а в октябре прошли концерты в рамках Международного фестиваля «Дни Высокой музыки в Самаре».
В декабре 2011 года Камерный оркестр вновь посетил столицу, выступив в Большом зале Московской консерватории им. П.И. Чайковского, а в апреле 2012 года открыл столичный международный фестиваль имени Николая Петрова «КРЕМЛЬ МУЗЫКАЛЬНЫЙ».
За относительно небольшой период своего существования оркестр успел покорить не только отечественные залы — в июне 2012 года любители классической музыки города Лозанны (Швейцария) рукоплескали нашим артистам. Швейцарская публика по достоинству оценила высокий уровень игры музыкантов, вызвав их на бис четыре раза.
Конечно, и у самарского слушателя есть возможность встретиться с Камерным оркестром. Целых три абонемента Самарской филармонии - VIP-абонемент «Дмитрий КОГАН представляет…», «Музыка для души» и «Вечера с Volga Philharmonic» - позволят услышать наш оркестр вместе с известнейшими музыкантами из Германии, Греции, Польши, Великобритании, Италии и, конечно же, из Москвы, Казани и Самары.

Скриншоты

Mediainfo

General
Format : Matroska
Format version : Version 4 / Version 2
File size : 2.23 GiB
Duration : 1h 2mn
Overall bit rate mode : Variable
Overall bit rate : 5 074 Kbps
DURATION : 01:02:59.360000000
NUMBER_OF_FRAMES : 118105
NUMBER_OF_BYTES : 211644160
Video
ID : 1
Format : AVC
Format/Info : Advanced Video Codec
Format profile : High@L4
Format settings, CABAC : Yes
Format settings, ReFrames : 2 frames
Format settings, GOP : M=2, N=13
Codec ID : V_MPEG4/ISO/AVC
Duration : 1h 2mn
Bit rate mode : Variable
Bit rate : 4 525 Kbps
Maximum bit rate : 16.0 Mbps
Width : 1 440 pixels
Height : 1 080 pixels
Display aspect ratio : 16:9
Frame rate mode : Constant
Frame rate : 25.000 fps
Color space : YUV
Chroma subsampling : 4:2:0
Bit depth : 8 bits
Scan type : Interlaced
Scan order : Top Field First
Bits/(Pixel*Frame) : 0.116
Stream size : 1.99 GiB (89%)
Default : Yes
Forced : No
Audio
ID : 2
Format : AC-3
Format/Info : Audio Coding 3
Mode extension : CM (complete main)
Format settings, Endianness : Big
Codec ID : A_AC3
Duration : 1h 2mn
Bit rate mode : Constant
Bit rate : 448 Kbps
Channel(s) : 6 channels
Channel positions : Front: L C R, Side: L R, LFE
Sampling rate : 48.0 KHz
Compression mode : Lossy
Stream size : 202 MiB (9%)
Default : Yes
Forced : No



Показать сообщения:    

Текущее время: 11-Дек 07:15

Часовой пояс: UTC + 3


Вы не можете начинать темы
Вы не можете отвечать на сообщения
Вы не можете редактировать свои сообщения
Вы не можете удалять свои сообщения
Вы не можете голосовать в опросах
Вы не можете прикреплять файлы к сообщениям
Вы не можете скачивать файлы