(Classical, 20th century) Carlos Chavez - Complete Symphonies - London Symphony Orchestra, Eduardo Mata - 2014, FLAC (image+.cue) lossless


 

[Цитировать]

Carlos Chávez - Complete Symphonies - London Symphony Orchestra, Eduardo Mata
Жанр: Classical, 20th century
Год издания диска: 2014
Издатель (лейбл): Brilliant Classics
Номер по каталогу: 94858
Дата записи: 1981
Аудиокодек: FLAC
Тип рипа: image+.cue
Битрейт аудио: lossless
Продолжительность: 2:15:02
Источник: собственный рип
Наличие сканов в содержимом раздачи: да
Треклист:
Carlos Chávez (1899-1978)
Complete Symphonies
CD1
[1] Sinfonía de Antígona (Symphony No.1)
[2]-[5] Symphony No.3
[6] Sinfonía Romántica (Symphony No.4)
CD2
[1] Sinfonía india (Symphony No.2)
[2]-[3] Symphony No.5
[4]-[6] Symphony No.6
Исполнители:
London Symphony Orchestra
Eduardo Mata

Лог создания рипа: CD1

Exact Audio Copy V1.0 beta 3 from 29. August 2011
EAC extraction logfile from 19. June 2015, 0:39
London Symphony Orchestra, Eduardo Mata / Chavez - Complete Symphonies - CD1
Used drive : HL-DT-STDVDRAM GU70N Adapter: 0 ID: 0
Read mode : Secure
Utilize accurate stream : Yes
Defeat audio cache : Yes
Make use of C2 pointers : No
Read offset correction : 48
Overread into Lead-In and Lead-Out : No
Fill up missing offset samples with silence : Yes
Delete leading and trailing silent blocks : No
Null samples used in CRC calculations : Yes
Used interface : Native Win32 interface for Win NT & 2000
Used output format : User Defined Encoder
Selected bitrate : 128 kBit/s
Quality : High
Add ID3 tag : No
Command line compressor : C:\Program Files (x86)\Exact Audio Copy\Flac\flac.exe
Additional command line options : -V -8 -T "Date=%year%" -T "Genre=%genre%" %source%
TOC of the extracted CD
Track | Start | Length | Start sector | End sector
---------------------------------------------------------
1 | 0:00.00 | 11:00.02 | 0 | 49501
2 | 11:00.02 | 7:23.13 | 49502 | 82739
3 | 18:23.15 | 9:20.57 | 82740 | 124796
4 | 27:43.72 | 6:13.13 | 124797 | 152784
5 | 33:57.10 | 8:06.65 | 152785 | 189299
6 | 42:04.00 | 21:54.15 | 189300 | 287864
Range status and errors
Selected range
Filename C:\temp\Chavez - Complete Symphonies - Mata\CD1\Chavez - Complete Symphonies - CD1.wav
Peak level 98.2 %
Extraction speed 2.1 X
Range quality 100.0 %
Test CRC FC38AEBB
Copy CRC FC38AEBB
Copy OK
No errors occurred
AccurateRip summary
Track 1 cannot be verified as accurate (confidence 4) [243AB142], AccurateRip returned [DEB4C423] (AR v2)
Track 2 cannot be verified as accurate (confidence 4) [09D4F8D0], AccurateRip returned [86AACAB2] (AR v2)
Track 3 cannot be verified as accurate (confidence 4) [C2CCFC51], AccurateRip returned [1BE2D6AB] (AR v2)
Track 4 cannot be verified as accurate (confidence 4) [C011FF10], AccurateRip returned [A2493A42] (AR v2)
Track 5 cannot be verified as accurate (confidence 4) [AF710B1F], AccurateRip returned [38277791] (AR v2)
Track 6 cannot be verified as accurate (confidence 5) [0FBE20FB], AccurateRip returned [DDF1E13F] (AR v2)
No tracks could be verified as accurate
You may have a different pressing from the one(s) in the database
End of status report
==== Log checksum F2779EE46F88CB91BA0134B82F42F824C8639C548138D3DD508C378BF6420AD1 ====

Лог создания рипа: CD2

Exact Audio Copy V1.0 beta 3 from 29. August 2011
EAC extraction logfile from 19. June 2015, 1:48
London Symphony Orchestra, Eduardo Mata / Chavez - Complete Symphonies - CD2
Used drive : HL-DT-STDVDRAM GU70N Adapter: 0 ID: 0
Read mode : Secure
Utilize accurate stream : Yes
Defeat audio cache : Yes
Make use of C2 pointers : No
Read offset correction : 48
Overread into Lead-In and Lead-Out : No
Fill up missing offset samples with silence : Yes
Delete leading and trailing silent blocks : No
Null samples used in CRC calculations : Yes
Used interface : Native Win32 interface for Win NT & 2000
Used output format : User Defined Encoder
Selected bitrate : 128 kBit/s
Quality : High
Add ID3 tag : No
Command line compressor : C:\Program Files (x86)\Exact Audio Copy\Flac\flac.exe
Additional command line options : -V -8 -T "Date=%year%" -T "Genre=%genre%" %source%
TOC of the extracted CD
Track | Start | Length | Start sector | End sector
---------------------------------------------------------
1 | 0:00.32 | 12:47.38 | 32 | 57594
2 | 12:47.70 | 16:41.65 | 57595 | 132734
3 | 29:29.60 | 7:06.05 | 132735 | 164689
4 | 36:35.65 | 12:05.42 | 164690 | 219106
5 | 48:41.32 | 5:35.40 | 219107 | 244271
6 | 54:16.72 | 16:47.35 | 244272 | 319831
Range status and errors
Selected range
Filename C:\temp\Chavez - Complete Symphonies - Mata\CD2\Chavez - Complete Symphonies - CD2.wav
Peak level 98.0 %
Extraction speed 2.2 X
Range quality 100.0 %
Test CRC D9DA1C48
Copy CRC D9DA1C48
Copy OK
No errors occurred
AccurateRip summary
Track 1 cannot be verified as accurate (confidence 3) [2F7F2C98], AccurateRip returned [F6486380] (AR v2)
Track 2 cannot be verified as accurate (confidence 3) [1BA33294], AccurateRip returned [39C53ECA] (AR v2)
Track 3 cannot be verified as accurate (confidence 3) [EC1CF7D6], AccurateRip returned [69E37243] (AR v2)
Track 4 cannot be verified as accurate (confidence 4) [698FF9FB], AccurateRip returned [5AE0626D] (AR v2)
Track 5 cannot be verified as accurate (confidence 4) [9760C746], AccurateRip returned [4ABBF88D] (AR v2)
Track 6 cannot be verified as accurate (confidence 4) [F2E125AA], AccurateRip returned [F24D4751] (AR v2)
No tracks could be verified as accurate
You may have a different pressing from the one(s) in the database
End of status report
==== Log checksum 136A8D336AC84696EC374A997567F9EAF6DC696D9565B49A6F51EE103DC22A15 ====



Показать сообщения:    

Текущее время: 10-Дек 02:17

Часовой пояс: UTC + 3


Вы не можете начинать темы
Вы не можете отвечать на сообщения
Вы не можете редактировать свои сообщения
Вы не можете удалять свои сообщения
Вы не можете голосовать в опросах
Вы не можете прикреплять файлы к сообщениям
Вы не можете скачивать файлы