(Classical) Edward Elgar - Enigma Variations; Cockaigne & Froissart Overtures - Leonard Slatkin, London Philharmonic Orchestra - 1989, FLAC (image+.cue) lossless


 

[Цитировать]

Edward Elgar - Enigma Variations; Cockaigne & Froissart Overtures
Жанр: Classical
Страна-производитель диска: Germany
Год издания диска: 1989
Издатель (лейбл): RCA Victor
Номер по каталогу: RD60073
Дата записи: 1988
Аудиокодек: FLAC
Тип рипа: image+.cue
Битрейт аудио: lossless
Продолжительность: 01:03:50
Источник: собственный рип
Наличие сканов в содержимом раздачи: да
Треклист:
01. Froissart, Op. 19 (13:52)
02. Cockaigne (In London Town), Op. 40 (15:36)
Variations on an Original Theme, Op. 36 "Enigma"
03. Theme (Enigma) (1:53)
04. Variation I (C.A.E) (2:20)
05. Variation II (H.D.S-P.) (0:50)
06. Variation III (R.B.T.) (1:26)
07. Variation IV (W.M.B.) (0:33)
08. Variation V (R.P.A.) (2:26)
09. Variation VI (Yosbel) (1:21)
10. Variation VII (Troyte) (0:58)
11. Variation VIII (W.N.) (1:56)
12. Variation IX (Nimrod) (5:04)
13. Variation X (Dorabella): Intermezzo (2:34)
14. Variation XI (G.R.S.) (0:59)
15. Variation XII (B.G.N.) (3:03)
16. Variation XIII (***): Rommanza (3:10)
17. Variation XIV (E.D.U.): Finale (5:49)

Исполнители:
London Philharmonic Orchestra
Leonard Slatkin, Conductor

Лог создания рипа

Exact Audio Copy V1.0 beta 3 from 29. August 2011
Отчёт EAC об извлечении, выполненном 26. февраля 2016, 20:39
Edward Elgar / Enigma Variations; Cockaigne & Froissart Overtures
Дисковод: ASUS DRW-1814BL Adapter: 1 ID: 1
Режим чтения : Достоверность
Использование точного потока : Да
Отключение кэша аудио : Да
Использование указателей C2 : Нет
Коррекция смещения при чтении : 6
Способность читать области Lead-in и Lead-out : Нет
Заполнение пропущенных сэмплов тишиной : Да
Удаление блоков с тишиной в начале и конце : Нет
При вычислениях CRC использовались нулевые сэмплы : Да
Интерфейс : Встроенный Win32-интерфейс для Win NT/2000
Выходной формат : Пользовательский кодировщик
Выбранный битрейт : 128 kBit/s
Качество : Высокий
Добавление ID3-тега : Нет
Утилита сжатия : C:\Program Files\Exact Audio Copy\Flac\flac.exe
Дополнительные параметры : -V -8 -T "Date=%year%" -T "Genre=%genre%" %source%
TOC извлечённого CD
Трек | Старт | Длительность | Начальный сектор | Конечный сектор
---------------------------------------------------------------------
1 | 0:00.32 | 13:51.48 | 32 | 62404
2 | 13:52.05 | 15:35.60 | 62405 | 132589
3 | 29:27.65 | 1:53.02 | 132590 | 141066
4 | 31:20.67 | 2:19.73 | 141067 | 151564
5 | 33:40.65 | 0:49.62 | 151565 | 155301
6 | 34:30.52 | 1:26.30 | 155302 | 161781
7 | 35:57.07 | 0:32.45 | 161782 | 164226
8 | 36:29.52 | 2:25.55 | 164227 | 175156
9 | 38:55.32 | 1:20.65 | 175157 | 181221
10 | 40:16.22 | 0:58.20 | 181222 | 185591
11 | 41:14.42 | 1:56.25 | 185592 | 194316
12 | 43:10.67 | 5:04.35 | 194317 | 217151
13 | 48:15.27 | 2:33.38 | 217152 | 228664
14 | 50:48.65 | 0:59.27 | 228665 | 233116
15 | 51:48.17 | 3:03.28 | 233117 | 246869
16 | 54:51.45 | 3:10.12 | 246870 | 261131
17 | 58:01.57 | 5:48.63 | 261132 | 287294
Характеристики диапазона извлечения и сообщения об ошибках
Выбранный диапазон
Имя файла C:\Documents and Settings\biotox\Рабочий стол\Новая папка (2)\Edward Elgar - Enigma Variations; Cockaigne & Froissart Overtures.wav
Пиковый уровень 100.0 %
Скорость извлечения 7.8 X
Качество диапазона 99.9 %
CRC теста CBDD9C72
CRC копии CBDD9C72
Копирование... OK
Ошибок не произошло
AccurateRip: сводка
Трек 1 : извлечено точно (доверие 4) [0ADDA2A2] (AR v2)
Трек 2 : извлечено точно (доверие 4) [E2857819] (AR v2)
Трек 3 : извлечено точно (доверие 4) [91A68DD9] (AR v2)
Трек 4 : извлечено точно (доверие 4) [14B34851] (AR v2)
Трек 5 : извлечено точно (доверие 4) [1C13FF5C] (AR v2)
Трек 6 : извлечено точно (доверие 4) [AA5E5C98] (AR v2)
Трек 7 : извлечено точно (доверие 4) [690E091C] (AR v2)
Трек 8 : извлечено точно (доверие 4) [B56DED79] (AR v2)
Трек 9 : извлечено точно (доверие 4) [A2ADBD1F] (AR v2)
Трек 10 : извлечено точно (доверие 4) [8395F442] (AR v2)
Трек 11 : извлечено точно (доверие 4) [3DE60B56] (AR v2)
Трек 12 : извлечено точно (доверие 4) [D090AB77] (AR v2)
Трек 13 : извлечено точно (доверие 4) [F22072ED] (AR v2)
Трек 14 : извлечено точно (доверие 4) [5CD5998E] (AR v2)
Трек 15 : извлечено точно (доверие 4) [FB74F9B2] (AR v2)
Трек 16 : извлечено точно (доверие 4) [5E5037E3] (AR v2)
Трек 17 : извлечено точно (доверие 4) [880542AF] (AR v2)
Все треки извлечены точно
Конец отчёта
==== Контрольная сумма отчёта CE30F2CE3C38088D82A2D2A72992253DBEBB161BC8DD981AEEFA8366A2926FFF ====

Замер динамического диапазона

foobar2000 1.2.9 / Замер динамического диапазона (DR) 1.1.1
Дата отчёта: 2016-02-26 20:44:45
--------------------------------------------------------------------------------
Анализ: Edward Elgar / Enigma Variations; Cockaigne & Froissart Overtures
--------------------------------------------------------------------------------
DR Пики RMS Продолжительность трека
--------------------------------------------------------------------------------
DR16 -5.46 дБ -27.86 дБ 13:52 01-Froissart Overture
DR15 -0.62 дБ -22.93 дБ 15:36 02-Cockaigne Overture
DR11 -17.87 дБ -36.85 дБ 1:53 03-Enigma Variations, Main Theme
DR13 -10.05 дБ -30.40 дБ 2:20 04-Variation 1
DR11 -18.11 дБ -35.27 дБ 0:50 05-Variation 2
DR13 -13.01 дБ -31.89 дБ 1:26 06-Variation 3
DR11 -2.74 дБ -20.77 дБ 0:33 07-Variation 4
DR12 -12.74 дБ -32.07 дБ 2:26 08-Variation 5
DR11 -14.73 дБ -34.12 дБ 1:21 09-Variation 6
DR14 -0.22 дБ -21.29 дБ 0:58 10-Variation 7
DR12 -13.60 дБ -31.66 дБ 1:56 11-Variation 8
DR15 -2.34 дБ -26.18 дБ 5:04 12-Variation 9
DR13 -20.32 дБ -40.79 дБ 2:34 13-Variation 10
DR13 -6.42 дБ -23.09 дБ 0:59 14-Variation 11
DR13 -12.49 дБ -33.56 дБ 3:03 15-Variation 12
DR15 -13.36 дБ -37.09 дБ 3:10 16-Variation 13
DR14 0.00 дБ -19.63 дБ 5:49 17-Variation 14
--------------------------------------------------------------------------------
Количество треков: 17
Реальные значения DR: DR13
Частота: 44100 Гц
Каналов: 2
Разрядность: 16
Битрейт: 485 кбит/с
Кодек: FLAC
================================================================================



Показать сообщения:    

Текущее время: 04-Дек 09:07

Часовой пояс: UTC + 3


Вы не можете начинать темы
Вы не можете отвечать на сообщения
Вы не можете редактировать свои сообщения
Вы не можете удалять свои сообщения
Вы не можете голосовать в опросах
Вы не можете прикреплять файлы к сообщениям
Вы не можете скачивать файлы