Отчаяние / Despair (Райнер Вернер Фассбиндер / Rainer Werner Fassbinder) [1978, Германия (ФРГ), Франция, драма, BDRip] DVO (СВ-Дубль) + DVO + Sub (Eng) + Original (Eng)


 

[Цитировать]

Отчаяние / Despair
Страна: Германия (ФРГ), Франция
Жанр: драма
Год выпуска: 1978
Продолжительность: 02:01:13
Перевод 1: Профессиональный (двухголосый закадровый) СВ-Дубль
Перевод 2: Профессиональный (двухголосый закадровый) ?
Cубтитры: английские
Оригинальная аудиодорожка: английский
Режиссер: Райнер Вернер Фассбиндер / Rainer Werner Fassbinder
В ролях: Дирк Богард, Андреа Ферреоль, Клаус Лёвич, Фолькер Шпенглер, Армин Майер, Петер Керн, Адриан Ховен, Александр Аллерсон, Харк Бом, Рогер Фриц, Готфрид Йон, И Са Ло, Лило Пемпайт, Ингрид Кавен, Фоли Гейлер, Изольда Барт, Бернхард Викки
Описание: Фильм поставлен по одноимённому роману Владимира Набокова.
Герман, русский эмигрант, владеет в Берлине начала тридцатых годов небольшой шоколадной фабрикой. Он женат на Лидии, чуть глуповатой толстушке, а та поддерживает отношения со своим кузеном Ардалионом, вечно пьяным художником, у которого никогда не бывает денег. Герману кажется, что за ним наблюдает двойник, который преследует его на каждом шагу, особенно когда он занимается любовью со своей женой…

Доп. информация:
Качество видео: BDRip | DarLeg/BDRemux 1080p
Формат видео: AVI
Видео: 720x432 (1.67:1), 23.976 fps, XviD build 73 ~1996 kbps avg, 0.27 bit/pixel
Аудио 1: 48 kHz, AC3 Dolby Digital, 2/0 (L,R) ch, ~192 kbps СВ-Дубль
Аудио 2: 48 kHz, AC3 Dolby Digital, 2/0 (L,R) ch, ~192 kbps DVO
Аудио 3: 48 kHz, AC3 Dolby Digital, 2/0 (L,R) ch, ~192 kbps оригинал
Формат субтитров: softsub (SRT)

MediaInfo

General
Complete name : C:\Despair.1978.BDRip.2xDVO.Eng_by_LBS.avi
Format : AVI
Format/Info : Audio Video Interleave
Format profile : OpenDML
File size : 2.18 GiB
Duration : 2h 1mn
Overall bit rate : 2 579 Kbps
Director : Last Boy Scout
Writing application : VirtualDubMod 1.5.10.3 | www.virtualdub-fr.org || (build 2550/release)
Copyright : rutracker.org 27.02.2016
Comment : BDRip DVO (СВ-Дубль) + DVO + Original (Eng)
Video
ID : 0
Format : MPEG-4 Visual
Format profile : Advanced Simple@L5
Format settings, BVOP : 1
Format settings, QPel : No
Format settings, GMC : No warppoints
Format settings, Matrix : Custom
Codec ID : XVID
Codec ID/Hint : XviD
Duration : 2h 1mn
Bit rate : 1 980 Kbps
Width : 720 pixels
Height : 432 pixels
Display aspect ratio : 1.667
Frame rate : 23.976 fps
Color space : YUV
Chroma subsampling : 4:2:0
Bit depth : 8 bits
Scan type : Progressive
Compression mode : Lossy
Bits/(Pixel*Frame) : 0.265
Stream size : 1.68 GiB (77%)
Writing library : XviD 73
Audio #1
ID : 1
Format : AC-3
Format/Info : Audio Coding 3
Mode extension : CM (complete main)
Format settings, Endianness : Big
Codec ID : 2000
Duration : 2h 1mn
Bit rate mode : Constant
Bit rate : 192 Kbps
Channel(s) : 2 channels
Channel positions : Front: L R
Sampling rate : 48.0 KHz
Bit depth : 16 bits
Compression mode : Lossy
Stream size : 166 MiB (7%)
Alignment : Split accross interleaves
Interleave, duration : 42 ms (1.00 video frame)
Interleave, preload duration : 500 ms
Audio #2
ID : 2
Format : AC-3
Format/Info : Audio Coding 3
Mode extension : CM (complete main)
Format settings, Endianness : Big
Codec ID : 2000
Duration : 2h 1mn
Bit rate mode : Constant
Bit rate : 192 Kbps
Channel(s) : 2 channels
Channel positions : Front: L R
Sampling rate : 48.0 KHz
Bit depth : 16 bits
Compression mode : Lossy
Stream size : 166 MiB (7%)
Alignment : Split accross interleaves
Interleave, duration : 42 ms (1.00 video frame)
Interleave, preload duration : 500 ms
Audio #3
ID : 3
Format : AC-3
Format/Info : Audio Coding 3
Mode extension : CM (complete main)
Format settings, Endianness : Big
Codec ID : 2000
Duration : 2h 1mn
Bit rate mode : Constant
Bit rate : 192 Kbps
Channel(s) : 2 channels
Channel positions : Front: L R
Sampling rate : 48.0 KHz
Bit depth : 16 bits
Compression mode : Lossy
Stream size : 166 MiB (7%)
Alignment : Split accross interleaves
Interleave, duration : 42 ms (1.00 video frame)
Interleave, preload duration : 500 ms

Скриншоты

-



Показать сообщения:    

Текущее время: 04-Дек 13:09

Часовой пояс: UTC + 3


Вы не можете начинать темы
Вы не можете отвечать на сообщения
Вы не можете редактировать свои сообщения
Вы не можете удалять свои сообщения
Вы не можете голосовать в опросах
Вы не можете прикреплять файлы к сообщениям
Вы не можете скачивать файлы