Янковский (Аркадий Коган) [2015, Документальный, HDTVRip-AVC]


Статистика раздачи [Обновить пиров]
Размер:  961 MB   |    Зарегистрирован:  8 месяцев 21 день   |    Скачан:  0 раз

Полного источника не было: Никогда

 
   
 
 
 

[Цитировать]

Янковский- Дата/Год выпуска: 2015
Страна: Россия | Первый Канала HD | Студия 217
Жанр: Документальный
Продолжительность: 1:11:16
Режиссер: Аркадий Коган-Описание: Этот фильм не об Олеге Янковском в привычном понимании: не биография великого актера, не обзор ролей. И не острые факты из его личной жизни. Хотя это все в фильме есть: драматичная судьба, неизвестные страницы биографии. Как любой большой актер, он обладал тайной — недоговаривал и в кино, и в жизни. Но главным его даром было даже не лицедейство. Янковский талантливо влюблял в себя людей. На него хотелось смотреть снова и снова: оттого его любили и любят до сих пор.-Автор рипа: lrn
Автор записи: Alexin29
Сэмпл: sendfile-Тип релиза: HDTVRip-AVC
Контейнер: MKV
Видео: 1024x576 (16:9), 25,000 fps, H264, ~1500 kbps avg, ~0.102 bit/pixel
Аудио: 48 kHz, AC3 Dolby Digital, 3/2 (L,C,R,l,r) + LFE ch, ~384.00 kbps avg-

MediaInfo

General
Unique ID : 191325109619775223430657412516358542078 (0x8FEFE032A89CD64EA222DE5A0ACA52FE)
Complete name : E:\uTorrent.Temp\Temp\Yankovskiy.2015.HDTVRip-AVC.x264-lrn.mkv
Format : Matroska
Format version : Version 4 / Version 2
File size : 961 MiB
Duration : 1h 11mn
Overall bit rate : 1 885 Kbps
Movie name : Yankovskiy.2015.HDTVRip-AVC.x264-lrn
Encoded date : UTC 2010-02-22 21:41:31
Writing application : mkvmerge v5.9.0 ('On The Loose') built on Dec 9 2012 15:37:01
Writing library : libebml v1.3.0 + libmatroska v1.4.0
Video
ID : 1
Format : AVC
Format/Info : Advanced Video Codec
Format profile : High@L4.1
Format settings, CABAC : Yes
Format settings, ReFrames : 8 frames
Codec ID : V_MPEG4/ISO/AVC
Duration : 1h 11mn
Bit rate : 1 500 Kbps
Width : 1 024 pixels
Height : 576 pixels
Display aspect ratio : 16:9
Frame rate mode : Constant
Frame rate : 25.000 fps
Color space : YUV
Chroma subsampling : 4:2:0
Bit depth : 8 bits
Scan type : Progressive
Bits/(Pixel*Frame) : 0.102
Stream size : 746 MiB (78%)
Writing library : x264 core 148 r2638 7599210
Encoding settings : cabac=1 / ref=8 / deblock=1:-3:-3 / analyse=0x3:0x133 / me=umh / subme=9 / psy=1 / psy_rd=1.00:0.00 / mixed_ref=1 / me_range=32 / chroma_me=1 / trellis=2 / 8x8dct=1 / cqm=0 / deadzone=21,11 / fast_pskip=1 / chroma_qp_offset=-2 / threads=12 / lookahead_threads=2 / sliced_threads=0 / nr=0 / decimate=1 / interlaced=0 / bluray_compat=0 / constrained_intra=0 / bframes=8 / b_pyramid=2 / b_adapt=2 / b_bias=0 / direct=3 / weightb=1 / open_gop=0 / weightp=2 / keyint=250 / keyint_min=25 / scenecut=40 / intra_refresh=0 / rc_lookahead=50 / rc=2pass / mbtree=1 / bitrate=1500 / ratetol=1.0 / qcomp=0.60 / qpmin=0 / qpmax=69 / qpstep=4 / cplxblur=20.0 / qblur=0.5 / vbv_maxrate=62500 / vbv_bufsize=78125 / nal_hrd=none / filler=0 / ip_ratio=1.40 / aq=1:1.00
Default : Yes
Forced : No
Statistics Tags Issue : mkvmerge v8.5.2 ('Crosses') 32bit 2016-02-26 06:50:17 / mkvmerge v5.9.0 ('On The Loose') built on Dec 9 2012 15:37:01 2010-02-22 21:41:31
FromStats_BitRate : 1499732
FromStats_Duration : 01:11:16.680000000
FromStats_FrameCount : 106917
FromStats_StreamSize : 801734381
Audio
ID : 2
Format : AC-3
Format/Info : Audio Coding 3
Mode extension : CM (complete main)
Format settings, Endianness : Big
Codec ID : A_AC3
Duration : 1h 11mn
Bit rate mode : Constant
Bit rate : 384 Kbps
Channel(s) : 6 channels
Channel positions : Front: L C R, Side: L R, LFE
Sampling rate : 48.0 KHz
Frame rate : 31.250 fps (1536 spf)
Compression mode : Lossy
Stream size : 196 MiB (20%)
Language : Russian
Default : Yes
Forced : No

x264 log

raw [info]: 1024x576p 1:1 @ 25/1 fps (cfr)
x264 [info]: using SAR=1/1
x264 [info]: using cpu capabilities: MMX2 SSE2Fast SSSE3 SSE4.2 AVX
x264 [info]: profile High, level 4.1
x264 [info]: frame I:680 Avg QP:16.54 size: 60448
x264 [info]: frame P:26490 Avg QP:19.55 size: 16665
x264 [info]: frame B:79747 Avg QP:22.15 size: 4002
x264 [info]: consecutive B-frames: 1.9% 3.8% 5.5% 58.6% 9.3% 14.6% 1.9% 3.6% 0.8%
x264 [info]: mb I I16..4: 10.1% 74.5% 15.4%
x264 [info]: mb P I16..4: 1.8% 7.9% 0.7% P16..4: 46.8% 15.0% 12.5% 0.3% 0.1% skip:14.8%
x264 [info]: mb B I16..4: 0.1% 0.6% 0.1% B16..8: 36.2% 5.2% 1.0% direct: 4.0% skip:52.7% L0:41.2% L1:49.9% BI: 8.9%
x264 [info]: 8x8 transform intra:75.6% inter:70.7%
x264 [info]: direct mvs spatial:96.1% temporal:3.9%
x264 [info]: coded y,uvDC,uvAC intra: 71.6% 62.2% 24.1% inter: 15.7% 17.2% 0.5%
x264 [info]: i16 v,h,dc,p: 37% 13% 7% 43%
x264 [info]: i8 v,h,dc,ddl,ddr,vr,hd,vl,hu: 12% 9% 6% 8% 12% 13% 13% 12% 13%
x264 [info]: i4 v,h,dc,ddl,ddr,vr,hd,vl,hu: 13% 9% 4% 9% 14% 14% 14% 11% 13%
x264 [info]: i8c dc,h,v,p: 43% 23% 20% 15%
x264 [info]: Weighted P-Frames: Y:6.1% UV:2.1%
x264 [info]: ref P L0: 53.7% 12.0% 16.1% 5.2% 4.3% 3.3% 3.1% 2.0% 0.2% 0.0%
x264 [info]: ref B L0: 82.1% 9.4% 3.8% 1.9% 1.4% 0.9% 0.5%
x264 [info]: ref B L1: 95.5% 4.5%
x264 [info]: kb/s:1499.73
encoded 106917 frames, 28.76 fps, 1499.73 kb/s

Скриншоты

-
[teatrix.ru].t23124.torrent 
Торрент: Зарегистрирован [ 2016-03-21 00:32 ] · 15FF8D28427119F638E0FFFB38A7645DFBF2FD12

Скачать .torrent

Скачать

19 KB

Статус: проверено
Скачан: 0 раз
Размер: 961 MB
terms.php



Быстрый ответ

Имя:

      
Для отправки сообщений необходимо включить JavaScript
Показать сообщения:    

Текущее время: 11-Дек 12:58

Часовой пояс: UTC + 3


Вы можете начинать темы
Вы можете отвечать на сообщения
Вы не можете редактировать свои сообщения
Вы не можете удалять свои сообщения
Вы не можете голосовать в опросах
Вы не можете прикреплять файлы к сообщениям
Вы можете скачивать файлы