Последняя любовь на Земле / Perfect Sense (Дэвид МакКензи / David Mackenzie) [2011 г., Великобритания, Швеция, Дания, Ирландия, фантастика, драма, мелодрама, BDRip-AVC] MVO (R5) + Original (Eng) + Sub (Rus, Eng)


 

[Цитировать]

Последняя любовь на Земле / Perfect Sense
«Что останется, когда мир лишится всех чувств?»
- Страна: Великобритания, Швеция, Дания, Ирландия
Жанр: фантастика, драма, мелодрама
Год выпуска: 2011
Продолжительность: 01:32:32
Рейтинг MPAA:
Перевод:
  • Профессиональный (многоголосый, закадровый)
    Оригинальная аудиодорожка: английская
    Cубтитры: Rus / Eng (вшитые, отключаемые)
    Навигация по главам: есть-Режиссер:Дэвид МакКензи / David Mackenzie-В ролях:
  • Юэн МакГрегор

  • Ева Грин
  • Лорен Томпани
  • Конни Нильсен
  • Дэнис Лосон
  • Стивен Диллэйн-Описание:
    Земля столкнулась с небывалым бедствием. В разных странах, на каждом континенте люди в самом буквальном смысле лишаются чувств — каждого из пяти, одного за другим… Майкл и Сьюзан считают свою связь мимолетной, но когда становится ясно, что мир неумолимо приближается к концу, герои понимают — им уже не прожить друг без друга. Но что останется, когда пропадут последние чувства?-KinoPoisk.RU 7.779 (15709) | IMDB: 7.00 (19693)
    ......../////////..Rottentomatoes: 51% (49) | Metascore: 55/100 (18 reviews)-yadi.sk-Качество: BDRip-AVC (BDRemux HDClub)
    Формат: MKV
    Аудио кодек: AC3
    Видео кодек: AVC
    Видео: AVC, 1120x476 (2,35:1), 23.976fps, 3596Kbps, 0.274bit/pixel
    Аудио #1: (Russian) AC3, 48kHz, 6ch, 448Kbps | MVO (R5)
    Аудио #2: (English) AC3, 48kHz, 6ch, 448Kbps | Original
    Субтитры #1: (Russian) UTF-8
    Субтитры #2: (English) UTF-8

    MediaInfo + Log x264Log x264

    ---[NoImage] DGMultiSource("D:\Ripping\Perfect sense\Perfect sense.dgi")
    ---[NoImage] crop(0, 132, 0, -132)
    ---[NoImage] Spline64Resize(1120, 476)
    --[Information] [31.01.2013 0:08:41] Job commandline: "C:\MeGui x86\tools\x264\avs4x264mod.exe" --level 4.1 --crf 18.06 --threads 6 --deblock -3:-3 --keyint 230 --bframes 16 --b-adapt 2 --ref 14 --vbv-bufsize 62500 --vbv-maxrate 50000 --qcomp 0.63 --no-mbtree --aq-mode 2 --aq-strength 1.05 --merange 64 --me umh --subme 11 --trellis 2 --psy-rd 0.95:0.11 --zones 125166,133117,q=35 --colorprim bt709 --transfer bt709 --colormatrix bt709 --sar 1:1 --output "D:\Ripping\Perfect sense\PS._new12.mkv" "D:\Ripping\Perfect sense\PS._new.avs"
    --[Information] [31.01.2013 0:08:41] Encoding started
    --[Information] [31.01.2013 5:46:39] Standard output stream
    ---[NoImage] avs [info]: AviSynth 2.60, build:May 16 2012 [03:31:34]
    ---[NoImage] avs [info]: Video colorspace: YV12
    ---[NoImage] avs [info]: Video resolution: 1120x476
    ---[NoImage] avs [info]: Video framerate: 24000/1001
    ---[NoImage] avs [info]: Video framecount: 133118
    ---[NoImage] avs4x264 [info]: "x264_64" - --level 4.1 --crf 18.06 --threads 6 --deblock -3:-3 --keyint 230 --bframes 16 --b-adapt 2 --ref 14 --vbv-bufsize 62500 --vbv-maxrate 50000 --qcomp 0.63 --no-mbtree --aq-mode 2 --aq-strength 1.05 --merange 64 --me umh --subme 11 --trellis 2 --psy-rd 0.95:0.11 --zones 125166,133117,q=35 --colorprim bt709 --transfer bt709 --colormatrix bt709 --sar 1:1 --output "D:\Ripping\Perfect sense\PS._new12.mkv"  --frames 133118 --fps 24000/1001 --input-res 1120x476 --input-csp i420
    --[Information] [31.01.2013 5:46:39] Standard error stream
    ---[NoImage] raw [info]: 1120x476p 1:1 @ 24000/1001 fps (cfr)
    ---[NoImage] x264 [info]: using SAR=1/1
    ---[NoImage] x264 [info]: using cpu capabilities: MMX2 SSE2Fast SSSE3 FastShuffle SSE4.2 AVX
    ---[NoImage] x264 [info]: profile High, level 4.1
    ---[NoImage]
    ---[NoImage] x264 [info]: frame I:822   Avg QP:17.59  size: 80523
    ---[NoImage] x264 [info]: frame P:26413 Avg QP:18.94  size: 31114
    ---[NoImage] x264 [info]: frame B:105883 Avg QP:20.76  size: 15180
    ---[NoImage] x264 [info]: consecutive B-frames:  1.3%  1.6%  6.4% 14.7% 14.3% 50.9%  3.9%  1.1%  1.0%  0.9%  0.7%  0.7%  0.5%  0.3%  0.2%  0.1%  1.4%
    ---[NoImage] x264 [info]: mb I  I16..4: 18.5% 58.6% 22.9%
    ---[NoImage] x264 [info]: mb P  I16..4:  2.1% 14.1%  1.9%  P16..4: 27.3% 32.0% 12.4%  0.0%  0.0%    skip:10.2%
    ---[NoImage] x264 [info]: mb B  I16..4:  0.2%  2.9%  0.2%  B16..8: 33.4% 18.6%  3.7%  direct: 6.8%  skip:34.2%  L0:43.6% L1:43.4% BI:13.0%
    ---[NoImage] x264 [info]: 8x8 transform intra:80.6% inter:57.4%
    ---[NoImage] x264 [info]: coded y,uvDC,uvAC intra: 93.2% 78.6% 53.7% inter: 32.5% 18.4% 2.8%
    ---[NoImage] x264 [info]: i16 v,h,dc,p: 10%  7% 27% 56%
    ---[NoImage] x264 [info]: i8 v,h,dc,ddl,ddr,vr,hd,vl,hu: 10%  9% 13%  9% 12% 12% 12% 11% 13%
    ---[NoImage] x264 [info]: i4 v,h,dc,ddl,ddr,vr,hd,vl,hu: 12%  9%  7%  8% 14% 13% 13% 10% 12%
    ---[NoImage] x264 [info]: i8c dc,h,v,p: 41% 25% 18% 16%
    ---[NoImage] x264 [info]: Weighted P-Frames: Y:3.0% UV:0.7%
    ---[NoImage] x264 [info]: ref P L0: 41.4% 11.2% 17.3%  6.1%  5.5%  3.8%  3.7%  1.9%  2.0%  1.5%  1.6%  1.2%  1.3%  1.2%  0.1%  0.0%
    ---[NoImage] x264 [info]: ref B L0: 69.0% 11.7%  6.0%  3.2%  2.4%  2.0%  1.6%  1.0%  0.9%  0.8%  0.7%  0.5%  0.2%
    ---[NoImage] x264 [info]: ref B L1: 92.0%  8.0%
    ---[NoImage] x264 [info]: kb/s:3595.49
    ---[NoImage] encoded 133118 frames, 6.57 fps, 3595.49 kb/s
    --[Information] Final statistics
    ---[Information] [31.01.2013 5:46:46] Constant Quality Mode: Quality 18 computed...
    ---[Information] [31.01.2013 5:46:46] Video Bitrate Obtained (approximate): 3596 kbit/s
    General
    Unique ID                   : 176953833872614867748289893172709245246 (0x852011992324437E991AFE36B435413E)
    Complete name               : D:\Video\AVC l HD\Последняя любовь на Земле [Perfect Sense] '11 [Just_TeMa].mkv
    Format                      : Matroska
    Format version              : Version 4 / Version 2
    File size                   : 2.91 GiB
    Duration                    : 1h 32mn
    Overall bit rate            : 4 495 Kbps
    Movie name                  : Последняя любовь на Земле / Perfect Sense (Дэвид МакКензи / David Mackenzie) 2011
    Encoded date                : UTC 2016-02-27 13:07:55
    Writing application         : mkvmerge v8.3.0 ('Over the Horizon') 64bit
    Writing library             : libebml v1.3.1 + libmatroska v1.4.2
    Attachements                : Cover.png
    [br]
    Video
    ID                          : 1
    Format                      : AVC
    Format/Info                 : Advanced Video Codec
    Format profile              : High@L4.1
    Format settings, CABAC      : Yes
    Format settings, ReFrames   : 14 frames
    Codec ID                    : V_MPEG4/ISO/AVC
    Duration                    : 1h 32mn
    Bit rate                    : 3 509 Kbps
    Width                       : 1 120 pixels
    Height                      : 476 pixels
    Display aspect ratio        : 2.35:1
    Frame rate mode             : Constant
    Frame rate                  : 23.976 fps
    Color space                 : YUV
    Chroma subsampling          : 4:2:0
    Bit depth                   : 8 bits
    Scan type                   : Progressive
    Bits/(Pixel*Frame)          : 0.275
    Stream size                 : 2.27 GiB (78%)
    Title                       : by Just_TeMa (source BDRemux)
    Writing library             : x264 core 129 r2245 bc13772
    Encoding settings           : cabac=1 / ref=14 / deblock=1:-3:-3 / analyse=0x3:0x113 / me=umh / subme=11 / psy=1 / psy_rd=0.95:0.11 / mixed_ref=1 / me_range=64 / chroma_me=1 / trellis=2 / 8x8dct=1 / cqm=0 / deadzone=21,11 / fast_pskip=1 / chroma_qp_offset=-3 / threads=6 / lookahead_threads=1 / sliced_threads=0 / nr=0 / decimate=1 / interlaced=0 / bluray_compat=0 / constrained_intra=0 / bframes=16 / b_pyramid=2 / b_adapt=2 / b_bias=0 / direct=1 / weightb=1 / open_gop=0 / weightp=2 / keyint=230 / keyint_min=23 / scenecut=40 / intra_refresh=0 / rc_lookahead=40 / rc=crf / mbtree=0 / crf=18.1 / qcomp=0.63 / qpmin=0 / qpmax=69 / qpstep=4 / vbv_maxrate=50000 / vbv_bufsize=62500 / crf_max=0.0 / nal_hrd=none / ip_ratio=1.40 / pb_ratio=1.30 / aq=2:1.05 / zones=125166,133117,q=35
    Language                    : English
    Default                     : Yes
    Forced                      : No
    Color range                 : Limited
    Color primaries             : BT.709
    Transfer characteristics    : BT.709
    Matrix coefficients         : BT.709
    [br]
    Audio #1
    ID                          : 2
    Format                      : AC-3
    Format/Info                 : Audio Coding 3
    Mode extension              : CM (complete main)
    Format settings, Endianness : Big
    Codec ID                    : A_AC3
    Duration                    : 1h 32mn
    Bit rate mode               : Constant
    Bit rate                    : 448 Kbps
    Channel(s)                  : 6 channels
    Channel positions           : Front: L C R, Side: L R, LFE
    Sampling rate               : 48.0 KHz
    Compression mode            : Lossy
    Stream size                 : 297 MiB (10%)
    Title                       : MVO (R5)
    Language                    : Russian
    Default                     : Yes
    Forced                      : No
    [br]
    Audio #2
    ID                          : 3
    Format                      : AC-3
    Format/Info                 : Audio Coding 3
    Mode extension              : CM (complete main)
    Format settings, Endianness : Big
    Codec ID                    : A_AC3
    Duration                    : 1h 32mn
    Bit rate mode               : Constant
    Bit rate                    : 448 Kbps
    Channel(s)                  : 6 channels
    Channel positions           : Front: L C R, Side: L R, LFE
    Sampling rate               : 48.0 KHz
    Compression mode            : Lossy
    Stream size                 : 297 MiB (10%)
    Title                       : Original
    Language                    : English
    Default                     : No
    Forced                      : No
    [br]
    Text #1
    ID                          : 4
    Format                      : UTF-8
    Codec ID                    : S_TEXT/UTF8
    Codec ID/Info               : UTF-8 Plain Text
    Language                    : Russian
    Default                     : No
    Forced                      : No
    [br]
    Text #2
    ID                          : 5
    Format                      : UTF-8
    Codec ID                    : S_TEXT/UTF8
    Codec ID/Info               : UTF-8 Plain Text
    Language                    : English
    Default                     : No
    Forced                      : No
    [br]
    Menu
    00:00:00.000                : en:Chapter  1
    00:09:46.002                : en:Chapter  2
    00:18:43.872                : en:Chapter  3
    00:27:44.371                : en:Chapter  4
    00:37:11.437                : en:Chapter  5
    00:46:55.395                : en:Chapter  6
    00:56:50.865                : en:Chapter  7
    01:07:23.539                : en:Chapter  8
    01:16:32.713                : en:Chapter  9
    01:27:46.928                : en:Chapter 10
    -Скриншоты и сравнение с исходником - -
  • My Vs. Source (screenshotcomparison.com)
    -
    -



  • Показать сообщения:    

    Текущее время: 02-Дек 23:10

    Часовой пояс: UTC + 3


    Вы не можете начинать темы
    Вы не можете отвечать на сообщения
    Вы не можете редактировать свои сообщения
    Вы не можете удалять свои сообщения
    Вы не можете голосовать в опросах
    Вы не можете прикреплять файлы к сообщениям
    Вы не можете скачивать файлы