Завещание слуцкой княгини / София Слуцкая (Артём Махакеев) [Беларусь, Белоруссия, 2010, Документальный, DVB-AVC]


Статистика раздачи [Обновить пиров]
Размер:  447 MB   |    Зарегистрирован:  8 месяцев 18 дней   |    Скачан:  0 раз

Полного источника не было: Никогда

 
   
 
 
 

[Цитировать]

Завещание слуцкой княгини / София Слуцкая
Год выпуска: 2010
Страна: Республика Беларусь
Жанр: Документальный
Продолжительность: 00:26:00
Перевод: Не требуется
Режиссер: Артём Махакеев
Описание: Фильм рассказывает о последней слуцкой княгине — одной из самых почитаемых святых подвижниц Беларуси — Софии Юрьевне Олелько.
София Слуцкая - святая Русской Православной Церкви, последняя княгиня Слуцкая и Копыльская, жена подчашего литовского Януша Радзивилла, последняя представительница княжеского рода Олельковичей Слуцких.
В основе фильма исторические события: конфликт между родами Ходкевичей и Радзивиллов, причиной которого стала София, последняя из рода Олельковичей. Её опекун Юрий Ходкевич, находившийся в денежном долгу у Радзивиллов, договорился отдать Софью, единственную наследницу колоссального состояния, замуж за Януша Радзивилла.
Благодарность: исходник для данной раздачи, записан с цифрового наземного канала, т.е. DVB-Т
Запись потока *.ts с наземного цифрового телеканала "Беларусь 3", ремукс в *.mkv программой VideoReDo.
Качество видео: DVB-AVC
Формат видео: MKV
Видео: AVC (H264), 720x576 (4:3), 25 fps, 2 101 Kbps
Аудио: MP2, 256 kbps, 2 channels, 48 kHz
Сэмпл: http://multi-up.com/1090877

MediaInfo

General
Unique ID : 137576333045828722170783314311853347603 (0x67803CE9F9EFF22F4A081AA135279313)
Complete name : D:\Новая земля 2\001 Документальный фильмы\Личности\Завещание слуцкой княгини (2010) (БТфМ)\Завещание слуцкой княгини (2010).mkv
Format : Matroska
Format version : Version 2
File size : 447 MiB
Duration : 26mn 0s
Overall bit rate : 2 405 Kbps
Writing application : Lavf52.64.2
Writing library : Lavf52.64.2
Video
ID : 1
Format : AVC
Format/Info : Advanced Video Codec
Format profile : Main@L3.0
Format settings, CABAC : Yes
Format settings, ReFrames : 4 frames
Format settings, GOP : M=4, N=24
Codec ID : V_MPEG4/ISO/AVC
Duration : 26mn 0s
Bit rate : 2 101 Kbps
Width : 720 pixels
Height : 576 pixels
Display aspect ratio : 4:3
Original display aspect ratio : 4:3
Frame rate mode : Constant
Frame rate : 25.000 fps
Standard : PAL
Color space : YUV
Chroma subsampling : 4:2:0
Bit depth : 8 bits
Scan type : MBAFF
Scan order : Top Field First
Bits/(Pixel*Frame) : 0.203
Stream size : 391 MiB (87%)
Default : Yes
Forced : No
Color primaries : BT.601 PAL
Transfer characteristics : BT.470 System B, BT.470 System G
Matrix coefficients : BT.601
Color range : Limited
Audio
ID : 2
Format : MPEG Audio
Format version : Version 1
Format profile : Layer 2
Codec ID : A_MPEG/L2
Codec ID/Hint : MP2
Duration : 26mn 0s
Bit rate mode : Constant
Bit rate : 256 Kbps
Channel(s) : 2 channels
Sampling rate : 48.0 KHz
Compression mode : Lossy
Stream size : 47.6 MiB (11%)
Language : Russian
Default : Yes
Forced : No
[teatrix.ru].t23127.torrent 
Торрент: Зарегистрирован [ 2016-03-21 00:32 ] · 536A4AC8E0B205F1E4F16F7403B7F2BC8EBDE09D

Скачать .torrent

Скачать

18 KB

Статус: проверено
Скачан: 0 раз
Размер: 447 MB
terms.php



Быстрый ответ

Имя:

      
Для отправки сообщений необходимо включить JavaScript
Показать сообщения:    

Текущее время: 08-Дек 10:56

Часовой пояс: UTC + 3


Вы можете начинать темы
Вы можете отвечать на сообщения
Вы не можете редактировать свои сообщения
Вы не можете удалять свои сообщения
Вы не можете голосовать в опросах
Вы не можете прикреплять файлы к сообщениям
Вы можете скачивать файлы