Тусовщица / Party Girl / Angelique (Мари Амашукели / Marie Amachoukeli, Клер Бюргер / Claire Burger, Самюэль Тейс / Samuel Theis) [2014, Франция, драма, DVB] Original (Fre) + Sub (Rus, Eng, Fre, Deu)


Статистика раздачи [Обновить пиров]
Размер:  2.29 GB   |    Зарегистрирован:  8 месяцев 19 дней   |    Скачан:  0 раз

Полного источника не было: 2 месяца 27 дней

 
   
 
 
 

[Цитировать]

Тусовщица
Party Girl- Страна: Франция
Жанр: драма
Год выпуска: 2014
Продолжительность: 01:31:21Перевод: Субтитры (русский перевод К.Семенюк, Éclair Media)
Cубтитры: русские, английские, французские, немецкие, румынские
Оригинальная аудиодорожка: французский
Режиссер: Мари Амашукели / Marie Amachoukeli, Клер Бюргер / Claire Burger, Самюэль Тейс / Samuel Theis
В ролях: Анжелика Литценбургер / Angélique Litzenburger (Angélique), Жозеф Бур / Joseph Bour (Michel Henrich), Марио Тейс / Mario Theis (Mario Theis), Самюэль Тейс / Samuel Theis (Samuel Theis), Шанталь Дешуэ / Chantal Dechuet (Madame Dechuet)
Описание: Анжелике 60 лет, но она всё ещё любит веселье и мужчин. Она зарабатывает на жизнь тем, что разводит мужчин на выпивку в кабаре у немецкой границы. Со временем клиентов становится всё меньше и меньше. И тут Мишель — её постоянный клиент, предлагает Анжелике выйти за него замуж.
Доп. информация: Hot Bird (13.0°E) TV5MONDE Europe DVB-S. Во время нефранцузской речи вшитые французские субтитры. На территории РФ возрастное ограничение 18+.
Награды: 2 награды Cannes Film Festival 2014 ("Золотая камера" за режиссерский дебют, приз актерскому ансамблю в программе "Особый взгляд") + 2 номинации ("Квир-Пальмовая ветвь" за освещение ЛГБТ-темы в кино, Главный приз в программе "Особый взгляд); 2 номинации на премию "Сезар" 2015 (лучший режиссерский дебют, лучший монтаж); номинация на премию "Европейское открытие года" European Film Awards 2014; др. награды.

Качество видео: DVB
Формат видео: TS
Видео: MPEG Video 2, 720x576@1024x576 (16:9), 25 fps, ~3222 kbps avg, 0.311 bit/pixel
Аудио: MPEG Audio 2, 2 ch, 48 kHz, 192 kbps - французский
Формат субтитров: PGS

MediaInfo

Общее
Идентификатор : 1 (0x1)
Полное имя : [apreder]Party_Girl(2014)DVB.ts
Формат : MPEG-TS
Размер файла : 2,29 Гбайт
Продолжительность : 1 ч. 31 м.
Режим общего битрейта : Переменный
Общий поток : 3594 Кбит/сек
Максимальный общий битрейт : 35,5 Мбит/сек
Видео
Идентификатор : 4113 (0x1011)
Идентификатор меню : 1 (0x1)
Формат : MPEG Video
Версия формата : Version 2
Профиль формата : Main@Main
Параметр BVOP формата : Да
Параметр матрицы формата : Выборочная
Параметр GOP формата : Variable
Format_Settings_PictureStructure : Frame
Идентификатор кодека : 2
Продолжительность : 1 ч. 31 м.
Вид битрейта : Переменный
Битрейт : 3222 Кбит/сек
Ширина : 720 пикселей
Высота : 576 пикселей
Соотношение сторон : 16:9
Частота кадров : 25,000 кадров/сек
Стандарт вещания : PAL
Цветовое пространство : YUV
Субдискретизация насыщенности : 4:2:0
Битовая глубина : 8 бит
Тип развёртки : Чересстрочная
Порядок развёртки : Верхнее поле первое
Метод сжатия : С потерями
Бит/(Пиксели*Кадры) : 0.311
Временной код первого кадра : 00:00:00:00
Оригинал временного кода : Group of pictures header
Размер потока : 2,06 Гбайт (90%)
Аудио
Идентификатор : 4352 (0x1100)
Идентификатор меню : 1 (0x1)
Формат : MPEG Audio
Версия формата : Version 1
Профиль формата : Layer 2
Идентификатор кодека : 4
Продолжительность : 1 ч. 31 м.
Вид битрейта : Постоянный
Битрейт : 192 Кбит/сек
Каналы : 2 канала
Частота : 48,0 КГц
Метод сжатия : С потерями
Размер потока : 125 Мбайт (5%)
Язык : French
Текст #1
Идентификатор : 4608 (0x1200)
Идентификатор меню : 1 (0x1)
Формат : PGS
Идентификатор кодека : 144
Продолжительность : 1 ч. 30 м.
Задержка видео : 18 с.
Язык : Russian
Текст #2
Идентификатор : 4609 (0x1201)
Идентификатор меню : 1 (0x1)
Формат : PGS
Идентификатор кодека : 144
Продолжительность : 1 ч. 30 м.
Задержка видео : 18 с.
Язык : English
Текст #3
Идентификатор : 4610 (0x1202)
Идентификатор меню : 1 (0x1)
Формат : PGS
Идентификатор кодека : 144
Продолжительность : 1 ч. 30 м.
Задержка видео : 18 с.
Язык : French
Текст #4
Идентификатор : 4611 (0x1203)
Идентификатор меню : 1 (0x1)
Формат : PGS
Идентификатор кодека : 144
Продолжительность : 1 ч. 30 м.
Задержка видео : 18 с.
Язык : German
Текст #5
Идентификатор : 4612 (0x1204)
Идентификатор меню : 1 (0x1)
Формат : PGS
Идентификатор кодека : 144
Задержка видео : 18 с.
Язык : Romanian

Скриншот c названием фильма

Скриншоты


Резервные скриншоты


-
[teatrix.ru].t23128.torrent 
Торрент: Зарегистрирован [ 2016-03-21 00:32 ] · B18F0D7516636782C56B99BBA20CC6071BCAD124

Скачать .torrent

Скачать

12 KB

Статус: проверено
Скачан: 0 раз
Размер: 2.29 GB
terms.php



Быстрый ответ

Имя:

      
Для отправки сообщений необходимо включить JavaScript
Показать сообщения:    

Текущее время: 09-Дек 20:28

Часовой пояс: UTC + 3


Вы можете начинать темы
Вы можете отвечать на сообщения
Вы не можете редактировать свои сообщения
Вы не можете удалять свои сообщения
Вы не можете голосовать в опросах
Вы не можете прикреплять файлы к сообщениям
Вы можете скачивать файлы