(Classical) Erkki-Sven Tüür (Tuur), Brett Dean - Gesualdo - Estonian Philharmonic Chamber Choir, Tallinn Chamber Orchestra, Tonu Kaljuste - 2015, FLAC (image+.cue) lossless


Статистика раздачи [Обновить пиров]
Размер:  277 MB   |    Зарегистрирован:  8 месяцев 13 дней   |    Скачан:  0 раз

Полного источника не было: Никогда

 
   
 
 
 

[Цитировать]

Erkki-Sven Tüür, Brett Dean - Gesualdo - Estonian Philharmonic Chamber Choir, Tallinn Chamber Orchestra, Tõnu Kaljuste
Жанр: Classical
Страна-производитель диска: Germany
Год издания диска: 2015
Издатель (лейбл): ECM
Номер по каталогу: ECM New Series 2452
Дата записи: 2014
Аудиокодек: FLAC
Тип рипа: image+.cue
Битрейт аудио: lossless
Продолжительность: 58:31
Источник: собственный рип
Наличие сканов в содержимом раздачи: да
Треклист:
Carlo Gesualdo da Venosa
[1] Moro lasso
From: Il Sesto Libro di Madrigali (1611)
Transcribed for string orchestra by Tõnu Kaljuste
Brett Dean
[2] Carlo (1997)
For choir and string orchestra
Carlo Gesualdo da Venosa
[3] O crux benedicta
From: Sacrarum cantionum liber primus (1603)
Arranged for string orchestra by Erkki-Sven Tüür
Erkki-Sven Tüür
[4] L’ombra della croce (2014)
For string orchestra
[5] Psalmody (1993/2011)
For mixed choir and orchestra
Исполнители:
Estonian Philharmonic Chamber Choir
Tallinn Chamber Orchestra
Tõnu Kaljuste
conductor

Лог создания рипа

Exact Audio Copy V1.1 from 23. June 2015
EAC extraction logfile from 26. February 2016, 0:09
Estonian Philharmonic Chamber Choir, Tallinn Chamber Orchestra, Tonu Kaljuste / Erkki-Sven Tüür, Brett Dean - Gesualdo
Used drive : HL-DT-STDVDRAM GU70N Adapter: 1 ID: 0
Read mode : Secure
Utilize accurate stream : Yes
Defeat audio cache : Yes
Make use of C2 pointers : No
Read offset correction : 48
Overread into Lead-In and Lead-Out : No
Fill up missing offset samples with silence : Yes
Delete leading and trailing silent blocks : No
Null samples used in CRC calculations : Yes
Used interface : Native Win32 interface for Win NT & 2000
Used output format : User Defined Encoder
Selected bitrate : 128 kBit/s
Quality : High
Add ID3 tag : No
Command line compressor : C:\Program Files (x86)\Exact Audio Copy\Flac\flac.exe
Additional command line options : -V -8 -T "Date=%year%" -T "Genre=%genre%" %source%
TOC of the extracted CD
Track | Start | Length | Start sector | End sector
---------------------------------------------------------
1 | 0:00.00 | 4:33.11 | 0 | 20485
2 | 4:33.11 | 20:37.00 | 20486 | 113260
3 | 25:10.11 | 4:14.47 | 113261 | 132357
4 | 29:24.58 | 6:57.14 | 132358 | 163646
5 | 36:21.72 | 22:09.21 | 163647 | 263342
Range status and errors
Selected range
Filename C:\temp\Erkki-Sven Tuur, Brett Dean - Gesualdo\Erkki-Sven Tuur, Brett Dean - Gesualdo.wav
Peak level 98.6 %
Extraction speed 5.2 X
Range quality 99.9 %
Test CRC 6ACCC678
Copy CRC 6ACCC678
Copy OK
No errors occurred
AccurateRip summary
Track 1 not present in database
Track 2 not present in database
Track 3 not present in database
Track 4 not present in database
Track 5 not present in database
None of the tracks are present in the AccurateRip database
End of status report
==== Log checksum BD7F3A9E47BC3BBBFD60F4C810565388ABC1D350AA2F501532E5F0B7E656F7B4 ====
[teatrix.ru].t23129.torrent 
Торрент: Зарегистрирован [ 2016-03-21 00:32 ] · 4D275562EC4FE5EA85D6ED361B389209F12115BD

Скачать .torrent

Скачать

23 KB

Статус: проверено
Скачан: 0 раз
Размер: 277 MB
terms.php



Быстрый ответ

Имя:

      
Для отправки сообщений необходимо включить JavaScript
Показать сообщения:    

Текущее время: 03-Дек 03:16

Часовой пояс: UTC + 3


Вы можете начинать темы
Вы можете отвечать на сообщения
Вы не можете редактировать свои сообщения
Вы не можете удалять свои сообщения
Вы не можете голосовать в опросах
Вы не можете прикреплять файлы к сообщениям
Вы можете скачивать файлы