Для девушек бесплатно / C'est gratuit pour les filles / It's Free for Girls (Мари Амашукели / Marie Amachoukeli, Клер Бюргер / Claire Burger) [2009, Франция, драма, короткий метр, DVB] Original (Fre) + Sub (Rus, Eng, Fre, Deu)


Статистика раздачи [Обновить пиров]
Размер:  567 MB   |    Зарегистрирован:  8 месяцев 20 дней   |    Скачан:  2 раза

Полного источника не было: 5 месяцев 24 дня

 
   
 
 
 

[Цитировать]

Для девушек бесплатно
C'est gratuit pour les filles- Страна: Франция
Жанр: драма, короткий метр
Год выпуска: 2009
Продолжительность: 00:21:52Перевод: Субтитры (русский перевод М.Лабори, Éclair Media)
Cубтитры: русские, английские, французские, немецкие, нидерландские, румынские
Оригинальная аудиодорожка: французский
Режиссер: Мари Амашукели / Marie Amachoukeli, Клер Бюргер / Claire Burger
В ролях: Летиция Адри / Laetitia Hadri (Laetitia), Йелик Альниак / Yeliz Alniak (Yeliz), Венсан Лопес Лама / Vicente Lopez Lama (Vicente), Мишель Элен / Michael Ehlen (Michael)
Описание: Видео, где Летиция делает минет своему парню Венсану, снятое мобильным телефоном, было выложено в сеть одним из участников вечеринки…
Доп. информация: Hot Bird (13.0°E) TV5MONDE Europe DVB-S
Награды: 2 номинации Cannes Film Festival 2009 (на премию "Открытие" на "Неделе критики", Гран-при Canal+ за лучшую короткометражку); премия "Сезар" 2009 за лучший короткометражный фильм; Гран-при за лучший фильм Vendome Short Film Festival 2009; премия "Откровение" Brest European Short Film Festival 2009; особое упоминание жюри Clermont-Ferrand International Short Film Festival 2009; др. награды.

Качество видео: DVB
Формат видео: TS
Видео: MPEG Video 2, 720x576@1024x576 (16:9), 25 fps, ~3250 kbps avg, 0.313 bit/pixel
Аудио: MPEG Audio 2, 2 ch, 48 kHz, 192 kbps - французский
Формат субтитров: PGS

MediaInfo

Общее
Идентификатор : 1 (0x1)
Полное имя : F:\My Torrents 3\[apreder]MINI_MOVIES_10\[apreder]MM_C'est_gratuit_pour_les_filles(2009)DVB.ts
Формат : MPEG-TS
Размер файла : 567 Мбайт
Продолжительность : 21 м.
Режим общего битрейта : Переменный
Общий поток : 3623 Кбит/сек
Максимальный общий битрейт : 35,5 Мбит/сек
Видео
Идентификатор : 4113 (0x1011)
Идентификатор меню : 1 (0x1)
Формат : MPEG Video
Версия формата : Version 2
Профиль формата : Main@Main
Параметр BVOP формата : Да
Параметр матрицы формата : Выборочная
Параметр GOP формата : M=4, N=12
Format_Settings_PictureStructure : Frame
Идентификатор кодека : 2
Продолжительность : 21 м.
Вид битрейта : Переменный
Битрейт : 3250 Кбит/сек
Ширина : 720 пикселей
Высота : 576 пикселей
Соотношение сторон : 16:9
Частота кадров : 25,000 кадров/сек
Стандарт вещания : PAL
Цветовое пространство : YUV
Субдискретизация насыщенности : 4:2:0
Битовая глубина : 8 бит
Тип развёртки : Чересстрочная
Порядок развёртки : Верхнее поле первое
Метод сжатия : С потерями
Бит/(Пиксели*Кадры) : 0.313
Временной код первого кадра : 00:00:00:00
Оригинал временного кода : Group of pictures header
Размер потока : 508 Мбайт (90%)
Аудио
Идентификатор : 4352 (0x1100)
Идентификатор меню : 1 (0x1)
Формат : MPEG Audio
Версия формата : Version 1
Профиль формата : Layer 2
Режим : Joint stereo
Расширение режима : Intensity Stereo + MS Stereo
Идентификатор кодека : 4
Продолжительность : 21 м.
Вид битрейта : Постоянный
Битрейт : 192 Кбит/сек
Каналы : 2 канала
Частота : 48,0 КГц
Метод сжатия : С потерями
Размер потока : 30,0 Мбайт (5%)
Язык : French
Текст #1
Идентификатор : 4608 (0x1200)
Идентификатор меню : 1 (0x1)
Формат : PGS
Идентификатор кодека : 144
Продолжительность : 21 м.
Задержка видео : 680 мс.
Язык : Russian
Текст #2
Идентификатор : 4609 (0x1201)
Идентификатор меню : 1 (0x1)
Формат : PGS
Идентификатор кодека : 144
Продолжительность : 21 м.
Задержка видео : 680 мс.
Язык : English
Текст #3
Идентификатор : 4610 (0x1202)
Идентификатор меню : 1 (0x1)
Формат : PGS
Идентификатор кодека : 144
Продолжительность : 21 м.
Задержка видео : 560 мс.
Язык : French
Текст #4
Идентификатор : 4611 (0x1203)
Идентификатор меню : 1 (0x1)
Формат : PGS
Идентификатор кодека : 144
Продолжительность : 21 м.
Задержка видео : 680 мс.
Язык : German
Текст #5
Идентификатор : 4612 (0x1204)
Идентификатор меню : 1 (0x1)
Формат : PGS
Идентификатор кодека : 144
Продолжительность : 21 м.
Задержка видео : 680 мс.
Язык : Dutch
Текст #6
Идентификатор : 4613 (0x1205)
Идентификатор меню : 1 (0x1)
Формат : PGS
Идентификатор кодека : 144
Задержка видео : 960 мс.
Язык : Romanian

Скриншот c названием фильма

Скриншоты

Резервные скриншоты

-
[teatrix.ru].t23130.torrent 
Торрент: Зарегистрирован [ 2016-03-21 00:32 ] · 6A06054773A37B155AEF054CC03367A371DC6B0D

Скачать .torrent

Скачать

12 KB

Статус: проверено
Скачан: 2 раз
Размер: 567 MB
terms.php



Быстрый ответ

Имя:

      
Для отправки сообщений необходимо включить JavaScript
Показать сообщения:    

Текущее время: 10-Дек 21:29

Часовой пояс: UTC + 3


Вы можете начинать темы
Вы можете отвечать на сообщения
Вы не можете редактировать свои сообщения
Вы не можете удалять свои сообщения
Вы не можете голосовать в опросах
Вы не можете прикреплять файлы к сообщениям
Вы можете скачивать файлы