Бананы / Bananas (Вуди Аллен / Woody Allen) [1971, США, комедия, WEB-DL 720p] MVO + 2x DVO + 2x AVO (Карцев, Володарский) + Sub Rus, Eng + Original Eng


 

[Цитировать]

Бананы / Bananas
Страна: США
Студия: Jack Rollins & Charles H. Joffe Productions
Жанр: комедия
Год выпуска: 1971
Продолжительность: 01:22:03
Перевод: Профессиональный (многоголосый закадровый)
Перевод 2: Профессиональный (двухголосый закадровый) НТВ+
Перевод 3: Профессиональный (двухголосый закадровый)
Перевод 4: Авторский (одноголосый закадровый) П. Карцев
Перевод 5: Авторский (одноголосый закадровый) Л. Володарский
Cубтитры: русские, английские
Оригинальная аудиодорожка: английский
Режиссер: Вуди Аллен /Woody Allen
В ролях: Вуди Аллен, Джек Экселрод, Дэвид Ортис, Мигель Суарес, Джакобо Моралес, Нативидад Абаскаль, Хауард Коселл, Луиз Лэссер, Рене Энрикес, Карлос Монтальбан, Сильвестр Сталлоне
Описание: Нью-Йоркец Филдинг Меллиш по уши влюблен в политическую активистку Нэнси, которая в упор его не видит, так как с головой погружена в революцию в одной из «банановых» республик под названием Сан-Маркос.
Вырядившись в форму а-ля Фидель Кастро и нацепив фальшивую рыжую бороду, Меллиш включается в революционную борьбу и по стечению самых нелепых обстоятельств становится президентом Сан-Маркос.
Затем он возвращается в Штаты, его разоблачают как жулика, судят за подрывную деятельность и, ко всеобщему удовольствию, он женится на Нэнси.

Доп. информация: В дорожке Володарского первые 5 минут идёт многоголоска, потому что запись на кассете была затерта.

Sample
Тип релиза: WEB-DL 720p
Контейнер: MKV
Видео: MPEG4 AVC Video, H264, 16:9, 1280x692, 23.976 fps, 3972 kbps
Аудио: Russian (AC3, 2 ch, 192 kbps, 16 bits, 48.0 KHz) - MVO
Аудио 2: Russian (AC3, 2 ch, 192 kbps, 16 bits, 48.0 KHz) - НТВ+
Аудио 3: Russian (AC3, 2 ch, 192 kbps, 16 bits, 48.0 KHz) - DVO
Аудио 4: Russian (AC3, 2 ch, 192 kbps, 16 bits, 48.0 KHz) - П. Карцев
Аудио 5: Russian (AC3, 2 ch, 192 kbps, 16 bits, 48.0 KHz) - Л. Володарский
Аудио 6: English (AAC, 2 ch, 106 kbps, 16 bits, 48.0 KHz) - оригинал
Формат субтитров: softsub (SRT)

MediaInfo

General
Unique ID : 242542198946907653410530487824083715235 (0xB677EDA9D94D6068B02697C4B77604A3)
Complete name : E:\Bananas 1971 WEB-DL 720p.mkv
Format : Matroska
Format version : Version 4 / Version 2
File size : 2.94 GiB
Duration : 1h 22mn
Overall bit rate : 5 124 Kbps
Encoded date : UTC 2016-02-27 15:40:29
Writing application : mkvmerge v6.1.0 ('Old Devil') built on Mar 2 2013 14:32:37
Writing library : libebml v1.3.0 + libmatroska v1.4.0
Video
ID : 1
Format : AVC
Format/Info : Advanced Video Codec
Format profile : High@L3.1
Format settings, CABAC : No
Format settings, ReFrames : 2 frames
Codec ID : V_MPEG4/ISO/AVC
Duration : 1h 22mn
Width : 1 280 pixels
Height : 692 pixels
Display aspect ratio : 1.85:1
Frame rate mode : Constant
Frame rate : 23.976 fps
Color space : YUV
Chroma subsampling : 4:2:0
Bit depth : 8 bits
Scan type : Progressive
Language : English
Default : Yes
Forced : No
Color primaries : BT.709
Transfer characteristics : BT.709
Matrix coefficients : BT.709
Audio #1
ID : 2
Format : AC-3
Format/Info : Audio Coding 3
Mode extension : CM (complete main)
Format settings, Endianness : Big
Codec ID : A_AC3
Duration : 1h 22mn
Bit rate mode : Constant
Bit rate : 192 Kbps
Channel count : 2 channels
Channel positions : Front: L R
Sampling rate : 48.0 KHz
Bit depth : 16 bits
Compression mode : Lossy
Stream size : 113 MiB (4%)
Title : MVO
Language : Russian
Default : Yes
Forced : No
Audio #2
ID : 3
Format : AC-3
Format/Info : Audio Coding 3
Mode extension : CM (complete main)
Format settings, Endianness : Big
Codec ID : A_AC3
Duration : 1h 22mn
Bit rate mode : Constant
Bit rate : 192 Kbps
Channel count : 2 channels
Channel positions : Front: L R
Sampling rate : 48.0 KHz
Bit depth : 16 bits
Compression mode : Lossy
Stream size : 113 MiB (4%)
Title : НТВ+
Language : Russian
Default : No
Forced : No
Audio #3
ID : 4
Format : AC-3
Format/Info : Audio Coding 3
Mode extension : CM (complete main)
Format settings, Endianness : Big
Codec ID : A_AC3
Duration : 1h 22mn
Bit rate mode : Constant
Bit rate : 192 Kbps
Channel count : 2 channels
Channel positions : Front: L R
Sampling rate : 48.0 KHz
Bit depth : 16 bits
Compression mode : Lossy
Stream size : 113 MiB (4%)
Title : DVO
Language : Russian
Default : No
Forced : No
Audio #4
ID : 5
Format : AC-3
Format/Info : Audio Coding 3
Mode extension : CM (complete main)
Format settings, Endianness : Big
Codec ID : A_AC3
Duration : 1h 22mn
Bit rate mode : Constant
Bit rate : 192 Kbps
Channel count : 2 channels
Channel positions : Front: L R
Sampling rate : 48.0 KHz
Bit depth : 16 bits
Compression mode : Lossy
Stream size : 113 MiB (4%)
Title : П. Карцев
Language : Russian
Default : No
Forced : No
Audio #5
ID : 6
Format : AC-3
Format/Info : Audio Coding 3
Mode extension : CM (complete main)
Format settings, Endianness : Big
Codec ID : A_AC3
Duration : 1h 22mn
Bit rate mode : Constant
Bit rate : 192 Kbps
Channel count : 2 channels
Channel positions : Front: L R
Sampling rate : 48.0 KHz
Bit depth : 16 bits
Compression mode : Lossy
Stream size : 113 MiB (4%)
Title : Л. Володарский
Language : Russian
Default : No
Forced : No
Audio #6
ID : 7
Format : AAC
Format/Info : Advanced Audio Codec
Format profile : LC
Codec ID : A_AAC
Duration : 1h 22mn
Channel count : 2 channels
Channel positions : Front: L R
Sampling rate : 48.0 KHz
Compression mode : Lossy
Language : English
Default : No
Forced : No
Text #1
ID : 8
Format : UTF-8
Codec ID : S_TEXT/UTF8
Codec ID/Info : UTF-8 Plain Text
Language : Russian
Default : No
Forced : No
Text #2
ID : 9
Format : UTF-8
Codec ID : S_TEXT/UTF8
Codec ID/Info : UTF-8 Plain Text
Language : English
Default : No
Forced : No

Скриншоты




Показать сообщения:    

Текущее время: 04-Дек 09:07

Часовой пояс: UTC + 3


Вы не можете начинать темы
Вы не можете отвечать на сообщения
Вы не можете редактировать свои сообщения
Вы не можете удалять свои сообщения
Вы не можете голосовать в опросах
Вы не можете прикреплять файлы к сообщениям
Вы не можете скачивать файлы