Продавец четырех времен года / Handler der vier Jahreszeiten (Райнер Вернер Фассбиндер / Rainer Werner Fassbinder) [1971, Германия (ФРГ), драма, BDRip] [Criterion Collection] DVO (Ульпаней Эльром) + VO + Sub (Rus, Eng) + Original Ger


 

[Цитировать]

Продавец четырех времен года / Handler der vier Jahreszeiten Страна: Германия (ФРГ)
Жанр: драма
Год выпуска: 1971
Продолжительность: 01:28:45
Перевод: Профессиональный (двухголосый закадровый) Ульпаней Эльром
Перевод 2: Одноголосый закадровый - женский голос
Cубтитры: русские, английские
Оригинальная аудиодорожка: немецкий
Режиссер: Райнер Вернер Фассбиндер / Rainer Werner Fassbinder
В ролях: Ханс Хиршмюллер, Ирм Херманн, Ханна Шигулла, Андреа Шёбер, Густи Крайссль, Клаус Лёвитч, Карл Шейдт, Ингрид Кавен, Курт Рааб, Хайди Саймон, Петер Чатель, Эльга Сорбас, Лило Пемпайт, Мариан Зайдовски, Вальтер Зедльмайр
Описание: После военной службы Ганс вернулся в город и был неприветливо встречен своей буржуазной семьей. Родители не одобряют его образа жизни, и Ганс уходит от них и становится уличным продавцом фруктов. Неудачи преследуют его, заставляя искать утешение в стакане. После пережитого сердечного приступа бизнес Ганса наконец-то начинает приносить доход, однако, чем больше денег он приносит в семью, тем более подавленным становится. В один прекрасный день он решает споить себя до смерти.

Автор рипа: Sem-te
Релиз от:
Качество видео: BDRip (Исходник: / BDRemux / 1080p)
Формат видео: AVI
Видео: 720x528 (1.36:1), 23.976 fps, XviD build 73 ~2146 kbps avg, 0.23 bit/pixel
Аудио: 48 kHz, AC3 Dolby Digital, 2/0 (L,R) ch, ~192 kbps | DVO
Аудио 2: 48 kHz, AC3 Dolby Digital, 2/0 (L,R) ch, ~192 kbps | женский голос (отдельно)
Аудио 3: 48 kHz, AC3 Dolby Digital, 1/0 (L,R) ch, ~192 kbps | Original (отдельно)

MediaInfo

General
Format : AVI
Format/Info : Audio Video Interleave
File size : 1.46 GiB
Duration : 1h 28mn
Overall bit rate : 2 348 Kbps
Writing application : VirtualDubMod 1.5.10.3 | www.virtualdub-fr.org || (build 2550/release)
Writing library : VirtualDubMod build 2550/release
Video
ID : 0
Format : MPEG-4 Visual
Format profile : Advanced Simple@L5
Format settings, BVOP : 1
Format settings, QPel : No
Format settings, GMC : No warppoints
Format settings, Matrix : Custom
Codec ID : XVID
Codec ID/Hint : XviD
Duration : 1h 28mn
Bit rate : 2 147 Kbps
Width : 720 pixels
Height : 528 pixels
Display aspect ratio : 4:3
Frame rate : 23.976 fps
Color space : YUV
Chroma subsampling : 4:2:0
Bit depth : 8 bits
Scan type : Progressive
Compression mode : Lossy
Bits/(Pixel*Frame) : 0.236
Stream size : 1.33 GiB (91%)
Writing library : XviD 73
Audio
ID : 1
Format : AC-3
Format/Info : Audio Coding 3
Mode extension : CM (complete main)
Format settings, Endianness : Big
Codec ID : 2000
Duration : 1h 28mn
Bit rate mode : Constant
Bit rate : 192 Kbps
Channel(s) : 2 channels
Channel positions : Front: L R
Sampling rate : 48.0 KHz
Bit depth : 16 bits
Compression mode : Lossy
Stream size : 122 MiB (8%)
Alignment : Split accross interleaves
Interleave, duration : 42 ms (1.00 video frame)
Interleave, preload duration : 500 ms



Показать сообщения:    

Текущее время: 07-Дек 13:41

Часовой пояс: UTC + 3


Вы не можете начинать темы
Вы не можете отвечать на сообщения
Вы не можете редактировать свои сообщения
Вы не можете удалять свои сообщения
Вы не можете голосовать в опросах
Вы не можете прикреплять файлы к сообщениям
Вы не можете скачивать файлы