[TR24][OF] Magdalena Kozena, La Cetra, Andrea Marcon - Monteverdi (Arias by Claudio Monteverdi, Biagio Marini, Tarquinio Merula, Marco Uccellini) - 2016 (Vocal)


Статистика раздачи [Обновить пиров]
Размер:  1.31 GB   |    Зарегистрирован:  8 месяцев 15 дней   |    Скачан:  2 раза

Полного источника не было: 9 дней

 
   
 
 
 

[Цитировать]

Magdalena Kozena, La Cetra, Andrea Marcon / Monteverdi
Формат записи/Источник записи: [TR24][OF]
Наличие водяных знаков: Нет
Год издания/переиздания диска: 2016
Жанр: Classics, Vocal
Издатель(лейбл): DG Archiv
Продолжительность: 01:17:04
Наличие сканов в содержимом раздачи: Нет
Треклист:
01. Zefiro torna, SV 251 00:06:59
Scherzi musicali, cioe arie, et madrigali in stil recitativo (Claudio Monteverdi)
02. Lamento della ninfa, SV 163 00:08:08
Madrigali guerrieri, et amorosi
03. Quel sguardo sdegnosetto, SV 247 00:04:00
Scherzi musicali, cioe arie, et madrigali in stil recitativo
04. Aria quinta sopra la Bergamasca 00:05:04
Sonate, arie et correnti, Op. 3 (Marco Uccellini)
05. Disprezzata Regina! 00:05:10
L'incoronazione di Poppea, SV 308 / Act 1 (Claudio Monteverdi)
06. Con che soavita, SV 139 00:05:28
Settimo libro de madrigali
07. Ballo detto Pollicio 00:02:09
Canzoni overo sonate concertate per chiesa e camera, Op. 12, Book 3 (Tarquinio Merula)
08. Addio, Roma! Addio, patria! Amici, addio! 00:04:24
L'incoronazione di Poppea, SV 308 / Act 3 (Claudio Monteverdi)
09. Damigella tutta bella, SV 235 00:02:55
Scherzi musicali
10. Passacalio a quattro 00:06:12
Per ogni sorte di strumento musicale diversi generi di sonate, da chiesa, e da camera, Op. 22 (Biagio Marini)
11. Combattimento di Tancredi e Clorinda, SV 153 00:21:21
Madrigali guerrieri, et amorosi (Claudio Monteverdi)
12. Pur ti miro 00:05:14
L'incoronazione di Poppea, SV 308 / Act 3
Контейнер: FLAC (*.flac)
Тип рипа: tracks
Разрядность: 24/96
Формат: flac
Количество каналов: 2.0

Лог проверки качества

foobar2000 1.2.2 / Замер динамического диапазона (DR) 1.1.1
Дата отчёта: 2016-02-28 09:47:08
--------------------------------------------------------------------------------
Анализ: La Cetra Barockorchester Basel, Main Artist, Orchestra - Andrea Marcon, Conductor, Main Artist - Andreas Neubronner, Recording Engineer - Markus Heiland, Producer - Marco Uccellini, Composer / Magdalena Kozená - Andrea Marcon, La Cetra Barockorchester Basel : Monteverdi (1)
La Cetra Barockorchester Basel, Main Artist, Orchestra - Andrea Marcon, Conductor, Main Artist - Andreas Neubronner, Recording Engineer - Markus Heiland, Producer - Tarquinio Merula, Composer / Magdalena Kozená - Andrea Marcon, La Cetra Barockorchester Basel : Monteverdi (2)
La Cetra Barockorchester Basel, Main Artist, Orchestra - Andrea Marcon, Conductor, Main Artist - Markus Heiland, Producer - Andreas Neubronner, Recording Engineer - Biagio Marini, Composer / Magdalena Kozená - Andrea Marcon, La Cetra Barockorchester Basel : Monteverdi (3)
Magdalena Kozená, Associated Performer, Main Artist, Mezzo-Soprano - Anna Prohaska, Associated Performer, Main Artist, Soprano - La Cetra Barockorchester Basel, Main Artist, Orchestra - Andrea Marcon, Conductor, Main Artist - Markus Heiland, Producer - Andreas Neubronner, Recording Engineer - Claudio Monteverdi, Composer / Magdalena Kozená - Andrea Marcon, La Cetra Barockorchester Basel : Monteverdi (4)
Magdalena Kozená, Associated Performer, Main Artist, Mezzo-Soprano - Anna Prohaska, Associated Performer, Main Artist, Soprano - La Cetra Barockorchester Basel, Main Artist, Orchestra - Andrea Marcon, Conductor, Main Artist - Markus Heiland, Producer - Andreas Neubronner, Recording Engineer - Giovanni Francesco Busenello, Author - Claudio Monteverdi, Composer / Magdalena Kozená - Andrea Marcon, La Cetra Barockorchester Basel : Monteverdi (5)
Magdalena Kozená, Associated Performer, Main Artist, Mezzo-Soprano - David Feldman, Associated Performer, Counter-Tenor, Main Artist - Luca Tittoto, Associated Performer, Bass, Main Artist - La Cetra Barockorchester Basel, Main Artist, Orchestra - Andrea Marcon, Conductor, Main Artist - Markus Heiland, Producer - Andreas Neubronner, Recording Engineer - Claudio Monteverdi, Composer / Magdalena Kozená - Andrea Marcon, La Cetra Barockorchester Basel : Monteverdi (6)
Magdalena Kozená, Associated Performer, Main Artist, Mezzo-Soprano - Jakob Pilgram, Associated Performer, Main Artist, Tenor - Michael Feyfar, Associated Performer, Main Artist, Tenor - Luca Tittoto, Associated Performer, Bass, Main Artist - La Cetra Barockorchester Basel, Main Artist, Orchestra - Andrea Marcon, Conductor, Main Artist - Andreas Neubronner, Recording Engineer - Markus Heiland, Producer - Claudio Monteverdi, Composer / Magdalena Kozená - Andrea Marcon, La Cetra Barockorchester Basel : Monteverdi (7)
Magdalena Kozená, Associated Performer, Main Artist, Mezzo-Soprano - La Cetra Barockorchester Basel, Main Artist, Orchestra - Andrea Marcon, Conductor, Main Artist - Andreas Neubronner, Recording Engineer - Markus Heiland, Producer - Claudio Monteverdi, Composer / Magdalena Kozená - Andrea Marcon, La Cetra Barockorchester Basel : Monteverdi (8)
Magdalena Kozená, Associated Performer, Main Artist, Mezzo-Soprano - La Cetra Barockorchester Basel, Main Artist, Orchestra - Andrea Marcon, Conductor, Main Artist - Andreas Neubronner, Recording Engineer - Markus Heiland, Producer - Giovanni Francesco Busenello, Author - Claudio Monteverdi, Composer / Magdalena Kozená - Andrea Marcon, La Cetra Barockorchester Basel : Monteverdi (9)
Magdalena Kozená, Associated Performer, Main Artist, Mezzo-Soprano - La Cetra Barockorchester Basel, Main Artist, Orchestra - Andrea Marcon, Conductor, Main Artist - Markus Heiland, Producer - Andreas Neubronner, Recording Engineer - Claudio Monteverdi, Composer / Magdalena Kozená - Andrea Marcon, La Cetra Barockorchester Basel : Monteverdi (10-11)
Magdalena Kozená, Associated Performer, Main Artist, Mezzo-Soprano - La Cetra Barockorchester Basel, Main Artist, Orchestra - Andrea Marcon, Conductor, Main Artist - Markus Heiland, Producer - Andreas Neubronner, Recording Engineer - Giovanni Francesco Busenello, Author - Claudio Monteverdi, Composer / Magdalena Kozená - Andrea Marcon, La Cetra Barockorchester Basel : Monteverdi (12)
--------------------------------------------------------------------------------
DR Пики RMS Продолжительность трека
--------------------------------------------------------------------------------
DR14 -6.34 дБ -24.37 дБ 5:04 ?-Sonate, arie et correnti, Op. 3:Aria quinta sopra la Bergamasca
DR14 -6.72 дБ -23.55 дБ 2:09 ?-Canzoni overo sonate concertate per chiesa e camera, Op. 12, Book 3:Ballo detto Pollicio
DR11 -10.48 дБ -25.94 дБ 6:12 ?-Per ogni sorte di strumento musicale diversi generi di sonate, da chiesa, e da camera, Op. 22:Passacalio a quattro
DR15 -0.85 дБ -21.55 дБ 6:59 ?-Scherzi musicali, cioè arie, et madrigali in stil recitativo:Zefiro torna, SV 251
DR16 -5.86 дБ -26.04 дБ 5:15 ?-L'incoronazione di Poppea, SV 308 / Act 3:Pur ti miro
DR16 -2.67 дБ -22.61 дБ 2:55 ?-Scherzi musicali:Damigella tutta bella, SV 235
DR13 -1.39 дБ -21.27 дБ 8:08 ?-Madrigali guerrieri, et amorosi:Lamento della ninfa, SV 163
DR17 -1.41 дБ -23.78 дБ 21:21 ?-Madrigali guerrieri, et amorosi:Combattimento di Tancredi e Clorinda, SV 153
DR13 -2.90 дБ -22.50 дБ 4:24 ?-L'incoronazione di Poppea, SV 308 / Act 3:Addio, Roma! Addio, patria! Amici, addio!
DR14 -1.19 дБ -20.84 дБ 4:00 ?-Scherzi musicali, cioè arie, et madrigali in stil recitativo:Quel sguardo sdegnosetto, SV 247
DR13 -3.96 дБ -22.90 дБ 5:29 ?-Settimo libro de madrigali:Con che soavità, SV 139
DR14 -2.10 дБ -22.99 дБ 5:10 ?-L'incoronazione di Poppea, SV 308 / Act 1:Disprezzata Regina!
--------------------------------------------------------------------------------
Количество треков: 12
Реальные значения DR: DR14
Частота: 96000 Гц
Каналов: 2
Разрядность: 24
Битрейт: 2411 кбит/с
Кодек: FLAC
================================================================================
Источник (релизер): http://www.prestoclassical.co.uk/r/DG%2BArchiv/4794595
Оркестр: La Cetra
Композитор: Claudio Monteverdi, Biagio Marini, Tarquinio Merula, Marco Uccellini
Дирижер: Andrea Marcon
Исполнитель: Magdalena Kozena
[teatrix.ru].t23134.torrent 
Торрент: Зарегистрирован [ 2016-03-21 00:32 ] · 5C3F496F7996C6303BA297A0B5328E0E9A7F49EE

Скачать .torrent

Скачать

14 KB

Статус: проверено
Скачан: 2 раз
Размер: 1.31 GB
terms.php



Быстрый ответ

Имя:

      
Для отправки сообщений необходимо включить JavaScript
Показать сообщения:    

Текущее время: 05-Дек 11:31

Часовой пояс: UTC + 3


Вы можете начинать темы
Вы можете отвечать на сообщения
Вы не можете редактировать свои сообщения
Вы не можете удалять свои сообщения
Вы не можете голосовать в опросах
Вы не можете прикреплять файлы к сообщениям
Вы можете скачивать файлы