Нома – мой идеальный шторм / Noma My Perfect Storm (Пьер Дешам / Pierre Deschamps) [2015, Великобритания, документальный, кулинарное искусство, DVB] DVO (SDI Media)


Статистика раздачи [Обновить пиров]
Размер:  1.23 GB   |    Зарегистрирован:  8 месяцев 19 дней   |    Скачан:  1 раз

Полного источника не было: 7 дней

 
   
 
 
 

[Цитировать]

"Нома" – мой идеальный шторм
Noma My Perfect Storm- Страна: Великобритания
Жанр: документальный, кулинарное искусство
Год выпуска: 2015
Продолжительность: 01:35:28Перевод: Профессиональный (двухголосый закадровый) Студия "SDI Media" по заказу телеканала "24 ДОК"
Cубтитры: русские
Режиссер: Пьер Дешам / Pierre Deschamps
В ролях: Рене Редцепи / René Redzepi
Описание: Вступительное слово ресторатора Алексея Зимина, главного редактора журнала "Афиша. Еда".
Ресторан "Нома" в Копенгагене был признан лучшим рестораном в мире в 2010, 2011, 2012 и 2014 годах. Он награждён двумя звёздами Мишлен, а шеф Рене Редцепи, один из самых влиятельных поваров на планете, устал считать международные награды. В "Номе" подают мох, лишайник и костный мозг, которые, будучи гениально приготовлены, оказываются вкуснее любых известных деликатесов. Фильм рассказывает о том, как Рене Редцепи стал великим шеф-поваром благодаря усердному труду и любви к своему делу, и показывает блюда, которые даже на вид вкуснее всего, что вы пробовали. (анонс канала "24 ДОК")
Доп. информация: Eutelsat 36B (W7) DVB-S
Награды: премия за лучший документальный фильм Tokyo Gohan Film Festival 2015; премия за лучший фильм по кулинарии San Sebastian International Film Festival 2015. Участник Berlin International Film Festival 2015.

Качество видео: DVB
Формат видео: MKV
Видео: MPEG Video 2, 720x576@768x576 (4:3), 25 fps, ~1622 kbps avg, 0.156 bit/pixel
Аудио: MPEG Audio 2, 2 ch, 48 kHz, 192 kbps
Формат субтитров: hardsub (неотключаемые)
Доп. информация о субтитрах: форсированные

MediaInfo

Общее
Уникальный идентификатор : 194455830134235754954836016870464728423 (0x924AD4A2F690A1298B10BF974730AD67)
Полное имя : [apreder]Noma_My_Perfect_Storm(2015)DVB.mkv
Формат : Matroska
Версия формата : Version 2
Размер файла : 1,23 Гбайт
Продолжительность : 1 ч. 35 м.
Режим общего битрейта : Переменный
Общий поток : 1851 Кбит/сек
Название фильма : Noma My Perfect Storm
Дата выпуска : 2015-11-18
Дата кодирования : UTC 2016-02-28 07:53:41
Программа кодирования : mkvmerge v8.9.0 ('Father Daughter') 64bit
Библиотека кодирования : libebml v1.3.3 + libmatroska v1.4.4
Обложка : Yes
Attachments : cover.jpg / cover_small.jpg
ACTOR : Rene Redzepi
DIRECTOR : Pierre Deschamps
GENRE : Documentary
IMDB : tt4610372
KEYWORDS : rutracker.org
LAW_RATING : 12+
Видео
Идентификатор : 1
Формат : MPEG Video
Версия формата : Version 2
Профиль формата : Main@Main
Параметр BVOP формата : Да
Параметр матрицы формата : Выборочная
Параметр GOP формата : Variable
Format_Settings_PictureStructure : Frame
Идентификатор кодека : V_MPEG2
Идентификатор кодека/Информация : MPEG 1 or 2 Video
Продолжительность : 1 ч. 35 м.
Вид битрейта : Переменный
Битрейт : 1622 Кбит/сек
Ширина : 720 пикселей
Высота : 576 пикселей
Соотношение сторон : 4:3
Режим частоты кадров : Постоянный
Частота кадров : 25,000 кадров/сек
Стандарт вещания : PAL
Цветовое пространство : YUV
Субдискретизация насыщенности : 4:2:0
Битовая глубина : 8 бит
Тип развёртки : Чересстрочная
Порядок развёртки : Верхнее поле первое
Метод сжатия : С потерями
Бит/(Пиксели*Кадры) : 0.156
Временной код первого кадра : 00:00:00:00
Оригинал временного кода : Group of pictures header
Размер потока : 1,08 Гбайт (88%)
Default : Да
Forced : Нет
Аудио
Идентификатор : 2
Формат : MPEG Audio
Версия формата : Version 1
Профиль формата : Layer 2
Идентификатор кодека : A_MPEG/L2
Идентификатор кодека/Подсказка : MP2
Продолжительность : 1 ч. 35 м.
Вид битрейта : Постоянный
Битрейт : 192 Кбит/сек
Каналы : 2 канала
Частота : 48,0 КГц
Метод сжатия : С потерями
Размер потока : 131 Мбайт (10%)
Язык : Russian
Default : Да
Forced : Нет

Скриншот c названием фильма

Скриншоты


Резервные скриншоты


-
[teatrix.ru].t23135.torrent 
Торрент: Зарегистрирован [ 2016-03-21 00:32 ] · 20A23D30B948F358D1FA47313D506042F80F422E

Скачать .torrent

Скачать

13 KB

Статус: проверено
Скачан: 1 раз
Размер: 1.23 GB
terms.php



Быстрый ответ

Имя:

      
Для отправки сообщений необходимо включить JavaScript
Показать сообщения:    

Текущее время: 09-Дек 22:26

Часовой пояс: UTC + 3


Вы можете начинать темы
Вы можете отвечать на сообщения
Вы не можете редактировать свои сообщения
Вы не можете удалять свои сообщения
Вы не можете голосовать в опросах
Вы не можете прикреплять файлы к сообщениям
Вы можете скачивать файлы