(Impressionism, Harp) Марсель Турнье - Сочинения для арфы: Этюды, Сонатина, Образы / Marcel Tournier - Works for Harp: Etudes, Sonatine, Images (Chantal Mathieu) - 1998, FLAC (tracks+.cue) lossless


 

[Цитировать]

Marcel Tournier - Works for Harp
Жанр: Impressionism, Harp
Страна-производитель диска: Switzerland
Год издания диска: 1998
Издатель (лейбл): Claves
Номер по каталогу: 50-9816
Дата записи: 1998
Аудиокодек: FLAC
Тип рипа: tracks+.cue
Битрейт аудио: lossless
Продолжительность: 60'45
Источник: скачано с
Наличие сканов в содержимом раздачи: да
Треклист:
Marcel Tournier (1879-1951)

Au Matin, Etude de Concert op. 39 (1940)
(3:36)
Vers La Source Dans Le Bois (1922) (4:08)
Sonatine Pour Harpe op.30 (1924)
I. Allègrement (5:16)
II. Calme Et Expressif (4:20)
III. Fièvreusement (5:53)
Images, 1ère Suite op.29 (1925)
1. Clair De Lune Sur L'etang Du Parc (4:18)
2. Au Seuil Du Temple (1:38)
3. Lolita La Danseuse (2:08)
Images, 2eme Suite op.31 (1925)
1. Les Enfants à la Creche de Noel (2:25)
2. L'etrange Cavalier (2:47)
3. La Marchande De Frivolites (2:57)
Images, 3ere Suite op. 35 (1930)
1. Les anesses grises sur la route d'El-Azib (3:30)
2. Danseuse à La Fontaine d'Ain-Draham (3:56)
3. Soir De Fête à Sedjenane (3:01)
Images, 4eme Suite op.39 (1932)
1. La Voliere magique (4:35)
2. Cloches Sous La Neige (2:01)
3. La Danse Du Moujik (4:45)
Исполнители:
Chantal Mathieu, harp
rec. june 1998, Salle Tibor Varga, Sion, Switzerland

Лог создания рипа

Exact Audio Copy V1.1 from 23. June 2015
EAC extraction logfile from 3. February 2016, 21:35
Unknown Artist / Unknown Title
Used drive : ASUS DRW-2014L1T Adapter: 1 ID: 0
Read mode : Secure
Utilize accurate stream : Yes
Defeat audio cache : Yes
Make use of C2 pointers : No
Read offset correction : 6
Overread into Lead-In and Lead-Out : No
Fill up missing offset samples with silence : Yes
Delete leading and trailing silent blocks : No
Null samples used in CRC calculations : Yes
Used interface : Native Win32 interface for Win NT & 2000
Gap handling : Appended to previous track
Used output format : User Defined Encoder
Selected bitrate : 768 kBit/s
Quality : High
Add ID3 tag : No
Command line compressor : C:\Program Files\Exact Audio Copy\FLAC\FLAC.EXE
Additional command line options : -8 -V -T "ARTIST=%artist%" -T "TITLE=%title%" -T "ALBUM=%albumtitle%" -T "DATE=%year%" -T "TRACKNUMBER=%tracknr%" -T "GENRE=%genre%" -T "COMMENT=%comment%" -T "BAND=%albuminterpret%" -T "ALBUMARTIST=%albuminterpret%" -T "COMPOSER=%composer%" %haslyrics%--tag-from-file=LYRICS="%lyricsfile%"%haslyrics% -T "DISCNUMBER=%cdnumber%" -T "TOTALDISCS=%totalcds%" -T "TOTALTRACKS=%numtracks%" %hascover%--picture="%coverfile%"%hascover% %source% -o %dest%
TOC of the extracted CD
Track | Start | Length | Start sector | End sector
---------------------------------------------------------
1 | 0:00.32 | 3:36.05 | 32 | 16236
2 | 3:36.37 | 4:08.45 | 16237 | 34881
3 | 7:45.07 | 5:16.55 | 34882 | 58636
4 | 13:01.62 | 4:20.05 | 58637 | 78141
5 | 17:21.67 | 5:53.60 | 78142 | 104676
6 | 23:15.52 | 4:18.60 | 104677 | 124086
7 | 27:34.37 | 1:38.25 | 124087 | 131461
8 | 29:12.62 | 2:08.25 | 131462 | 141086
9 | 31:21.12 | 2:25.15 | 141087 | 151976
10 | 33:46.27 | 2:47.60 | 151977 | 164561
11 | 36:34.12 | 2:57.33 | 164562 | 177869
12 | 39:31.45 | 3:30.00 | 177870 | 193619
13 | 43:01.45 | 3:56.32 | 193620 | 211351
14 | 46:58.02 | 3:01.13 | 211352 | 224939
15 | 49:59.15 | 4:35.12 | 224940 | 245576
16 | 54:34.27 | 2:01.53 | 245577 | 254704
17 | 56:36.05 | 4:45.30 | 254705 | 276109
Track 1
Filename H:\Musique\Rips\Marcel Tournier - Works for Harp (Chantal Mathieu) [Flac]\01 Track01.wav
Pre-gap length 0:00:02.42
Peak level 78.7 %
Extraction speed 4.9 X
Track quality 100.0 %
Test CRC BA1D7159
Copy CRC BA1D7159
Accurately ripped (confidence 1) [7CA2FA66] (AR v1)
Copy OK
Track 2
Filename H:\Musique\Rips\Marcel Tournier - Works for Harp (Chantal Mathieu) [Flac]\02 Track02.wav
Pre-gap length 0:00:05.76
Peak level 66.8 %
Extraction speed 5.5 X
Track quality 100.0 %
Test CRC 7C19F946
Copy CRC 7C19F946
Accurately ripped (confidence 1) [E025DC88] (AR v1)
Copy OK
Track 3
Filename H:\Musique\Rips\Marcel Tournier - Works for Harp (Chantal Mathieu) [Flac]\03 Track03.wav
Pre-gap length 0:00:03.53
Peak level 60.9 %
Extraction speed 4.8 X
Track quality 99.9 %
Test CRC 293B2341
Copy CRC 293B2341
Accurately ripped (confidence 1) [1A992507] (AR v1)
Copy OK
Track 4
Filename H:\Musique\Rips\Marcel Tournier - Works for Harp (Chantal Mathieu) [Flac]\04 Track04.wav
Pre-gap length 0:00:03.20
Peak level 44.3 %
Extraction speed 6.6 X
Track quality 100.0 %
Test CRC 1CE288A6
Copy CRC 1CE288A6
Accurately ripped (confidence 1) [5ADB981F] (AR v1)
Copy OK
Track 5
Filename H:\Musique\Rips\Marcel Tournier - Works for Harp (Chantal Mathieu) [Flac]\05 Track05.wav
Pre-gap length 0:00:01.36
Peak level 60.6 %
Extraction speed 7.3 X
Track quality 100.0 %
Test CRC E887ED22
Copy CRC E887ED22
Accurately ripped (confidence 1) [263C36A6] (AR v1)
Copy OK
Track 6
Filename H:\Musique\Rips\Marcel Tournier - Works for Harp (Chantal Mathieu) [Flac]\06 Track06.wav
Pre-gap length 0:00:07.62
Peak level 54.3 %
Extraction speed 7.5 X
Track quality 100.0 %
Test CRC 7BC0A377
Copy CRC 7BC0A377
Accurately ripped (confidence 1) [D6F131F1] (AR v1)
Copy OK
Track 7
Filename H:\Musique\Rips\Marcel Tournier - Works for Harp (Chantal Mathieu) [Flac]\07 Track07.wav
Pre-gap length 0:00:03.89
Peak level 17.2 %
Extraction speed 6.3 X
Track quality 100.0 %
Test CRC F4960A97
Copy CRC F4960A97
Accurately ripped (confidence 1) [2B761B7C] (AR v1)
Copy OK
Track 8
Filename H:\Musique\Rips\Marcel Tournier - Works for Harp (Chantal Mathieu) [Flac]\08 Track08.wav
Pre-gap length 0:00:02.42
Peak level 67.8 %
Extraction speed 7.0 X
Track quality 100.0 %
Test CRC CD86868F
Copy CRC CD86868F
Accurately ripped (confidence 1) [877077B6] (AR v1)
Copy OK
Track 9
Filename H:\Musique\Rips\Marcel Tournier - Works for Harp (Chantal Mathieu) [Flac]\09 Track09.wav
Pre-gap length 0:00:03.62
Peak level 76.0 %
Extraction speed 7.4 X
Track quality 100.0 %
Test CRC 7C447726
Copy CRC 7C447726
Accurately ripped (confidence 1) [DE84E7BA] (AR v1)
Copy OK
Track 10
Filename H:\Musique\Rips\Marcel Tournier - Works for Harp (Chantal Mathieu) [Flac]\10 Track10.wav
Pre-gap length 0:00:01.80
Peak level 55.2 %
Extraction speed 7.8 X
Track quality 100.0 %
Test CRC CE2EBF39
Copy CRC CE2EBF39
Accurately ripped (confidence 1) [0A43356B] (AR v1)
Copy OK
Track 11
Filename H:\Musique\Rips\Marcel Tournier - Works for Harp (Chantal Mathieu) [Flac]\11 Track11.wav
Pre-gap length 0:00:01.49
Peak level 36.0 %
Extraction speed 8.1 X
Track quality 100.0 %
Test CRC 3C5F9F36
Copy CRC 3C5F9F36
Accurately ripped (confidence 1) [261CEA05] (AR v1)
Copy OK
Track 12
Filename H:\Musique\Rips\Marcel Tournier - Works for Harp (Chantal Mathieu) [Flac]\12 Track12.wav
Pre-gap length 0:00:03.24
Peak level 55.5 %
Extraction speed 8.5 X
Track quality 100.0 %
Test CRC 4B401630
Copy CRC 4B401630
Accurately ripped (confidence 1) [734F4A66] (AR v1)
Copy OK
Track 13
Filename H:\Musique\Rips\Marcel Tournier - Works for Harp (Chantal Mathieu) [Flac]\13 Track13.wav
Pre-gap length 0:00:03.17
Peak level 45.4 %
Extraction speed 8.8 X
Track quality 100.0 %
Test CRC 851F3CDF
Copy CRC 851F3CDF
Accurately ripped (confidence 1) [71AE704E] (AR v1)
Copy OK
Track 14
Filename H:\Musique\Rips\Marcel Tournier - Works for Harp (Chantal Mathieu) [Flac]\14 Track14.wav
Pre-gap length 0:00:01.42
Peak level 75.1 %
Extraction speed 8.7 X
Track quality 100.0 %
Test CRC 1B6B7BD8
Copy CRC 1B6B7BD8
Accurately ripped (confidence 1) [F6D633A0] (AR v1)
Copy OK
Track 15
Filename H:\Musique\Rips\Marcel Tournier - Works for Harp (Chantal Mathieu) [Flac]\15 Track15.wav
Pre-gap length 0:00:04.60
Peak level 49.1 %
Extraction speed 9.5 X
Track quality 100.0 %
Test CRC 4832DD0D
Copy CRC 4832DD0D
Accurately ripped (confidence 1) [AAC0F001] (AR v1)
Copy OK
Track 16
Filename H:\Musique\Rips\Marcel Tournier - Works for Harp (Chantal Mathieu) [Flac]\16 Track16.wav
Pre-gap length 0:00:03.93
Peak level 47.5 %
Extraction speed 8.4 X
Track quality 100.0 %
Test CRC 36F581DC
Copy CRC 36F581DC
Accurately ripped (confidence 1) [17D0C0A3] (AR v1)
Copy OK
Track 17
Filename H:\Musique\Rips\Marcel Tournier - Works for Harp (Chantal Mathieu) [Flac]\17 Track17.wav
Pre-gap length 0:00:02.46
Peak level 99.6 %
Extraction speed 10.1 X
Track quality 100.0 %
Test CRC 773BA38A
Copy CRC 773BA38A
Accurately ripped (confidence 1) [57C08662] (AR v1)
Copy OK
All tracks accurately ripped
No errors occurred
End of status report
==== Log checksum 21954E47B5D09B875DC56E0401CB6F45C4A4A674DCBD63F998133AE16AB06BE9 ====

Содержание индексной карты (.CUE)

REM DISCID FB0E6111
REM COMMENT "ExactAudioCopy v1.1"
PERFORMER "Unknown Artist"
TITLE "Unknown Title"
FILE "01 Track01.wav" WAVE
TRACK 01 AUDIO
TITLE "Track01"
PERFORMER "Unknown Artist"
PREGAP 00:00:32
INDEX 01 00:00:00
TRACK 02 AUDIO
TITLE "Track02"
PERFORMER "Unknown Artist"
INDEX 00 03:30:23
FILE "02 Track02.wav" WAVE
INDEX 01 00:00:00
TRACK 03 AUDIO
TITLE "Track03"
PERFORMER "Unknown Artist"
INDEX 00 04:05:05
FILE "03 Track03.wav" WAVE
INDEX 01 00:00:00
TRACK 04 AUDIO
TITLE "Track04"
PERFORMER "Unknown Artist"
INDEX 00 05:13:40
FILE "04 Track04.wav" WAVE
INDEX 01 00:00:00
TRACK 05 AUDIO
TITLE "Track05"
PERFORMER "Unknown Artist"
INDEX 00 04:18:53
FILE "05 Track05.wav" WAVE
INDEX 01 00:00:00
TRACK 06 AUDIO
TITLE "Track06"
PERFORMER "Unknown Artist"
INDEX 00 05:46:13
FILE "06 Track06.wav" WAVE
INDEX 01 00:00:00
TRACK 07 AUDIO
TITLE "Track07"
PERFORMER "Unknown Artist"
INDEX 00 04:14:68
FILE "07 Track07.wav" WAVE
INDEX 01 00:00:00
TRACK 08 AUDIO
TITLE "Track08"
PERFORMER "Unknown Artist"
INDEX 00 01:35:68
FILE "08 Track08.wav" WAVE
INDEX 01 00:00:00
TRACK 09 AUDIO
TITLE "Track09"
PERFORMER "Unknown Artist"
INDEX 00 02:04:53
FILE "09 Track09.wav" WAVE
INDEX 01 00:00:00
TRACK 10 AUDIO
TITLE "Track10"
PERFORMER "Unknown Artist"
INDEX 00 02:23:30
FILE "10 Track10.wav" WAVE
INDEX 01 00:00:00
TRACK 11 AUDIO
TITLE "Track11"
PERFORMER "Unknown Artist"
INDEX 00 02:46:23
FILE "11 Track11.wav" WAVE
INDEX 01 00:00:00
TRACK 12 AUDIO
TITLE "Track12"
PERFORMER "Unknown Artist"
INDEX 00 02:54:15
FILE "12 Track12.wav" WAVE
INDEX 01 00:00:00
TRACK 13 AUDIO
TITLE "Track13"
PERFORMER "Unknown Artist"
INDEX 00 03:26:62
FILE "13 Track13.wav" WAVE
INDEX 01 00:00:00
TRACK 14 AUDIO
TITLE "Track14"
PERFORMER "Unknown Artist"
INDEX 00 03:55:00
FILE "14 Track14.wav" WAVE
INDEX 01 00:00:00
TRACK 15 AUDIO
TITLE "Track15"
PERFORMER "Unknown Artist"
INDEX 00 02:56:43
FILE "15 Track15.wav" WAVE
INDEX 01 00:00:00
TRACK 16 AUDIO
TITLE "Track16"
PERFORMER "Unknown Artist"
INDEX 00 04:31:17
FILE "16 Track16.wav" WAVE
INDEX 01 00:00:00
TRACK 17 AUDIO
TITLE "Track17"
PERFORMER "Unknown Artist"
INDEX 00 01:59:18
FILE "17 Track17.wav" WAVE
INDEX 01 00:00:00
Доп. информация: На диске представлены сочинения известного французского арфиста-импрессиониста, лауреата Римской премии, профессора Парижской консерватории Марселя Турнье (1879-1951). Композиторское наследие Турнье, отмеченное влиянием Клода Дебюсси, обширно, но самое значительное у него - пьесы для арфы соло. Сорок пять - сорок семь струн, натянутых на треугольную металлическую раму, в руках мастера способны создавать картины спокойной мирной природы, фантастические образы, имитировать звучание народных инструментов, способствуют романтическому общению и создают необыкновенную атмосферу умиротворения. В программе: концертные этюды "Утром" и "У источника в лесу", знаменитая Сонатина (1924) и 4 сюиты из цикла "Образы" (1925-32) - I. Лунный свет на пруду парка, На пороге храма, Лолита-танцовщица; II. Дети в Рождественских яслях, Странный всадник, Торговец безделушками; III. Серые ослы по дороге в Эль-Азиб, Танцор у фонтана Айн-Драхам, Праздничный вечер в Седженане; IV. Волшебный вольер, Колокола в снегу, Танец мужика.



Показать сообщения:    

Текущее время: 04-Дек 06:57

Часовой пояс: UTC + 3


Вы не можете начинать темы
Вы не можете отвечать на сообщения
Вы не можете редактировать свои сообщения
Вы не можете удалять свои сообщения
Вы не можете голосовать в опросах
Вы не можете прикреплять файлы к сообщениям
Вы не можете скачивать файлы