(Classical) Johann Kuhnau, Vincenzo Albrici - Cantatas & Arias for Soprano - Barbara Christina Steude, concerto con voce, Jan Katzschke - 2010, FLAC (image+.cue) lossless


 

[Цитировать]

Johann Kuhnau, Vincenzo Albrici - Cantatas & Arias for Soprano - Barbara Christina Steude, concerto con voce, Jan Katzschke
Жанр: Classical
Страна-производитель диска: Germany
Год издания диска: 2010
Издатель (лейбл): CPO
Номер по каталогу: cpo777531-2
Дата записи: 2009
Аудиокодек: FLAC
Тип рипа: image+.cue
Битрейт аудио: lossless
Продолжительность: 67:32
Источник: собственный рип
Наличие сканов в содержимом раздачи: да
Треклист:
Johann Kuhnau (1660-1722)
[1]-[7] Weicht ihr Sorgen aus dem Herzen
[8] Ach Gott, wie läßt du mich verstarren
Vincenzo Albrici (1631-1696)
[9] Omnia quae fecit Deus
Johann Kuhnau
[10] In te Domine speravi
Vincenzo Albrici
[11] Mihi autem bonum est
Johann Kuhnau
[12] Bone Jesu
[13]-[17] Und ob die Feinde
Исполнители:
Barbara Christina Steude soprano
concerto con voce
Jan Katzschke
direction

Лог создания рипа

Exact Audio Copy V1.1 from 23. June 2015
EAC extraction logfile from 1. October 2015, 20:55
Barbara Christina Steude, Concerto con Voce, Jan Katzschke / Kuhnau, Albrici - Soprano Cantatas
Used drive : HL-DT-STDVDRAM GU70N Adapter: 1 ID: 0
Read mode : Secure
Utilize accurate stream : Yes
Defeat audio cache : Yes
Make use of C2 pointers : No
Read offset correction : 48
Overread into Lead-In and Lead-Out : No
Fill up missing offset samples with silence : Yes
Delete leading and trailing silent blocks : No
Null samples used in CRC calculations : Yes
Used interface : Native Win32 interface for Win NT & 2000
Used output format : User Defined Encoder
Selected bitrate : 128 kBit/s
Quality : High
Add ID3 tag : No
Command line compressor : C:\Program Files (x86)\Exact Audio Copy\Flac\flac.exe
Additional command line options : -V -8 -T "Date=%year%" -T "Genre=%genre%" %source%
TOC of the extracted CD
Track | Start | Length | Start sector | End sector
---------------------------------------------------------
1 | 0:00.00 | 3:17.06 | 0 | 14780
2 | 3:17.06 | 1:36.35 | 14781 | 22015
3 | 4:53.41 | 0:59.43 | 22016 | 26483
4 | 5:53.09 | 1:03.71 | 26484 | 31279
5 | 6:57.05 | 2:57.20 | 31280 | 44574
6 | 9:54.25 | 1:17.27 | 44575 | 50376
7 | 11:11.52 | 5:30.40 | 50377 | 75166
8 | 16:42.17 | 7:28.23 | 75167 | 108789
9 | 24:10.40 | 8:38.60 | 108790 | 147699
10 | 32:49.25 | 8:32.26 | 147700 | 186125
11 | 41:21.51 | 6:13.67 | 186126 | 214167
12 | 47:35.43 | 8:29.56 | 214168 | 252398
13 | 56:05.24 | 2:56.72 | 252399 | 265670
14 | 59:02.21 | 1:37.60 | 265671 | 273005
15 | 60:40.06 | 1:29.12 | 273006 | 279692
16 | 62:09.18 | 2:16.42 | 279693 | 289934
17 | 64:25.60 | 3:06.59 | 289935 | 303943
Range status and errors
Selected range
Filename C:\temp\Kuhnau, Albrici - Soprano Cantatas\Kuhnau, Albrici - Soprano Cantatas.wav
Peak level 99.9 %
Extraction speed 2.2 X
Range quality 100.0 %
Test CRC E0826963
Copy CRC E0826963
Copy OK
No errors occurred
AccurateRip summary
Track 1 accurately ripped (confidence 7) [4A836EFD] (AR v2)
Track 2 accurately ripped (confidence 7) [BF980007] (AR v2)
Track 3 accurately ripped (confidence 7) [CB1475D1] (AR v2)
Track 4 accurately ripped (confidence 7) [FB98E680] (AR v2)
Track 5 accurately ripped (confidence 7) [8B999DD4] (AR v2)
Track 6 accurately ripped (confidence 7) [A7D4E9CB] (AR v2)
Track 7 accurately ripped (confidence 7) [722FCE44] (AR v2)
Track 8 accurately ripped (confidence 7) [05E25B9B] (AR v2)
Track 9 accurately ripped (confidence 7) [A027A1A2] (AR v2)
Track 10 accurately ripped (confidence 7) [4A5B6DC8] (AR v2)
Track 11 accurately ripped (confidence 7) [BF519609] (AR v2)
Track 12 accurately ripped (confidence 7) [8A77FBC7] (AR v2)
Track 13 accurately ripped (confidence 7) [96A7066C] (AR v2)
Track 14 accurately ripped (confidence 7) [D275D118] (AR v2)
Track 15 accurately ripped (confidence 7) [1E44CDA5] (AR v2)
Track 16 accurately ripped (confidence 7) [ADF6C31C] (AR v2)
Track 17 accurately ripped (confidence 7) [E872EBB6] (AR v2)
All tracks accurately ripped
End of status report
==== Log checksum 820F9CD688562454486EF88E22A57980A382045D6A44B658BAFC9CA5695FCE39 ====



Показать сообщения:    

Текущее время: 10-Дек 10:01

Часовой пояс: UTC + 3


Вы не можете начинать темы
Вы не можете отвечать на сообщения
Вы не можете редактировать свои сообщения
Вы не можете удалять свои сообщения
Вы не можете голосовать в опросах
Вы не можете прикреплять файлы к сообщениям
Вы не можете скачивать файлы